GTA 5 / Grand Theft Auto V (2013) PC, XBOX 360, PS3 | Геймплей

Reply to topic
 
Author
Message

LORN-V ®

Gender: Male

Longevity: 6 years 10 months

Posts: 904

Reputation: 5 [+] [-]

Location: Munchen

LORN-V · Post 15-Jul-2013 19:20

[Quote] 

GTA 5 / Grand Theft Auto V- -Основная информация:-Дата выхода игры: 17 сентября 2013
Жанр: Action
Платформы: PC, Xbox 360, PS3
Разработчик: Rockstar North
Издатель: Rockstar Games
Продолжительность: 00:04:49
Качество видео: WEBRip
Перевод: Профессиональный(Одноголосый закадровый) [русский] + субтитры-Описание:-GTA 5 - включает в себя три различные истории о сильно отличающихся друг от друга главных героях, между которыми можно будет переключаться в любой момент:
Майкл - бывший очень успешный грабитель банков, чуть старше 40 лет. Он ушел от дел в роскоши, после заключения очень выгодной сделки с ФБР. Участвует в программе по защите свидетелей. У него негативные отношения с женой, которая тратит его деньги, и еще есть двое детей - подростков, которых он не понимает. Желая стать хорошим семьянином и полностью исправиться, переезжает в Лос-Сантос. Деньги у Майкла заканчиваются, что вынуждает его снова погрязнуть в криминальных делах.
Тревор - профессиональный преступник, старый друг Майкла. Вместе они совершали налеты на банки, ему тоже за 40. Бывший военный летчик, ставший наркоманом. Склонен к вспышкам насилия и буйствам. Конфликтует с Франклином.
Франклин - молодой и амбициозный карманник лет 25-ти. Работает на армянский автосалон роскошных авто, который продает машины тем, кто не может себе этого позволить. После того, как выплаты вскоре прекращаются, Франклин тачку забирает.
Мир GTA 5 обещает быть огромным и разнообразным (горы, холмы, леса, пляжи и прочее). Будет еще больше свободы. Можно будет летать на самолетах, прыгать с парашютом, заниматься дайвингом и многими другими видами спорта. В серии GTA наконец-то появятся полноценные NPC животных.-Доп. информация:-Видеокодек: AVC
Битрейт видео: ~2423 Кбит/сек
Размер кадра: 1280х720
Аудиокодек: AAC
Битрейт аудио: 192 Кбит/сек

MediaInfo:

Общее
Полное имя : C:ВИДЕОGrand Theft Auto V- официальное видео геймплея.mp4
Формат : MPEG-4
Профиль формата : Base Media / Version 2
Идентификатор кодека : mp42
Размер файла : 90,5 Мбайт
Продолжительность : 4 м. 49 с.
Режим общего битрейта : Переменный
Общий поток : 2618 Кбит/сек
Дата кодирования : UTC 2013-07-08 14:21:58
Дата пометки : UTC 2013-07-08 14:21:58
gsst : 0
gstd : 290133
gssd : BADC23A4CHH1373441732819755
gshh : r12---sn-n8v7ln7r.c.youtube.com
Видео
Идентификатор : 1
Формат : AVC
Формат/Информация : Advanced Video Codec
Профиль формата : High@L3.1
Параметр CABAC формата : Да
Параметр ReFrames формата : 1 кадр
Идентификатор кодека : avc1
Идентификатор кодека/Информация : Advanced Video Coding
Продолжительность : 4 м. 49 с.
Битрейт : 2423 Кбит/сек
Максимальный битрейт : 6452 Кбит/сек
Ширина : 1280 пикселей
Высота : 720 пикселей
Соотношение сторон : 16:9
Режим частоты кадров : Постоянный
Частота кадров : 29,970 кадров/сек
Цветовое пространство : YUV
Субдискретизация насыщенности : 4:2:0
Битовая глубина : 8 бит
Тип развёртки : Прогрессивная
Бит/(Пиксели*Кадры) : 0.088
Размер потока : 83,8 Мбайт (93%)
Дата пометки : UTC 2013-07-08 14:22:03
Аудио
Идентификатор : 2
Формат : AAC
Формат/Информация : Advanced Audio Codec
Профиль формата : LC
Идентификатор кодека : 40
Продолжительность : 4 м. 49 с.
Вид битрейта : Переменный
Битрейт : 192 Кбит/сек
Максимальный битрейт : 202 Кбит/сек
Каналы : 2 канала
Расположение каналов : Front: L R
Частота : 44,1 КГц
Метод сжатия : С потерями
Размер потока : 6,64 Мбайт (7%)
Заголовок : IsoMedia File Produced by Google, 5-11-2011
Дата кодирования : UTC 2013-07-08 14:22:01
Дата пометки : UTC 2013-07-08 14:22:03
-

Скриншоты:

[Profile]  [PM] 
Display posts:    
Reply to topic

Current time is: 18-Feb 17:12

All times are UTC + 2



You cannot post new topics in this forum
You cannot reply to topics in this forum
You cannot edit your posts in this forum
You cannot delete your posts in this forum
You cannot vote in polls in this forum
You cannot attach files in this forum
You cannot download files in this forum