Ди.Грэй-мен: Святые / D.Gray-man Hallow TV 2 (Серии 1- 13 из 13) (Асино Ёсихару) [2016, Приключения, комедия, фэнтези, мультсериал , HDTVRip-AVC 720р] [MVO] [Anidub,AniLibria] [DD5.1] [RusSub + Оригинал]

Reply to topic
 
Author
Message

Враг Нароода ®

Gender: Unknown

Longevity: 4 years 7 months

Posts: 314

Reputation: 1 [+] [-]

Враг Нароода · Post 27-Aug-2016 16:50

[Quote] 

--Ди.Грэй-мен: Святые / D.Gray-man Hallow Серии 1- 13 из 13-- --Год выпуска: 2016
Выпущено: Япония ,
Жанр: Приключения, комедия, фэнтези, мультсериал
Серии: 1- 13
Количество серий в сезоне: 13
Продолжительность: 00:24:00
Автор оригинала / Сценарист: Хосино Кацура
Озвучка 1: Любительский многоголосый - (Anidub)Студийная банда AD, Торгиль, Давид Петросян, BalFor, Esther, Demetra, Влад Дуров, JAM, Cuba77-Русский
Озвучка 2: Любительский многоголосый - (AniLibria) Reni, Aemi-Русский
Озвучка 3: Профессиональный многоголосый - Японский -Оригинал
Субтитры: Русские (Софтсаб)-- Рейтинг на World Art--Режиссер: Асино Ёсихару--В ролях: Аюму Мурасэ, Такуя Сато, Нацуки Ханаэ, Ай Какума, Синносукэ Татибана, Нориаки Сугияма, Ами Косимидзу, Цугуо Могами, Такуя Эгути, Ютака Аояма, Масакадзу Нисида, Юй Кондо, Сойтиро Хоси-- Сюжет разворачивается в альтернативной реальности 19-го века. Главный злодей аниме — Тысячелетний граф, ведущий тотальное уничтожение мира с помощью механических демонов — Акума. Акума способны поглотить душу человека, Граф использует их для того, чтобы содержать в демонах неупокоенные души. Однако здесь есть маленький подвох: Граф делает это не из лучших побуждений, а в качестве личного интереса. Как только душа оказывается в Акума, она теряет свою принадлежность и владелец демона спокойно управляет действиями тела, отдавая ему приказы через робота. Экзорцисты ведут активную охоту на владельцев Акума, ведь подчинение души — серьезное преступление, на которое способен пойти только расчетливый человек.-- --Качество : HDTVRip-AVC 720р
Формат: MKV
Видео кодек: H264
Видео: 2063Кбит/сек,1280х720(16.9)(16.9),в 23.976кадр/сек,AVC(Main@L4.1)(CABAC/4 Ref Frames)
Аудио Кодек:AC3
Аудио #1:AC3 , 192 Kbps, 48.0 KHz, 6 ch- -(Anidub)Студийная банда AD, Торгиль, Давид Петросян, BalFor, Esther, Demetra, Влад Дуров, JAM, Cuba77-Русский
Аудио #2:AC3 , 192 Kbps, 48.0 KHz, 6 ch- -(AniLibria) Reni, Aemi-Русский
Аудио #3: AC3, 192 Kbps, 48.0 KHz,6 ch - - Японский -Оригинал--

Доп. информация:

Русская звуковая дорожка сделана путем наложения чистого голоса озвучивателей на центральный канал оригинальной дорожки. Качество идентично английской звуковой дорожке.
--

Список эпизодов


#1 D.Gray-man - ТВ (103 эп.), адаптация манги, 2006

#2 D.Gray-man Hallow - ТВ (13 эп.), адаптация манги, 2016
--

MediaInfo

Общее
Уникальный идентификатор : 177194279639441110773786174196513528986 (0x854E607D61B560B8A307C4137D785C9A)
Полное имя : F:\ДИ.ГРЭЙ-МЕН\D_Gray_Man_Hallow_2016_S02_[ADStudio_&_Libria]_DD5.1_N.B_HDTVRip_720p\D_Gray_Man_Hallow_2016_S02E01_[ADStudio_&_Libria]_N.B_HDTVRip_720p.mkv
Формат : Matroska
Версия формата : Version 4 / Version 2
Размер файла : 457 Мбайт
Продолжительность : 24 м.
Общий поток : 2632 Кбит/сек
Название фильма : D_Gray_Man_Hallow_2016_S02E01_[ADStudio_&_Libria]_N.B_HDTVRip_720p
Дата кодирования : UTC 2016-07-27 09:34:27
Программа кодирования : mkvmerge v9.2.0 ('Photograph') 64bit
Библиотека кодирования : libebml v1.3.3 + libmatroska v1.4.4
Видео
Идентификатор : 1
Формат : AVC
Формат/Информация : Advanced Video Codec
Профиль формата : Main@L4.1
Параметр CABAC формата : Да
Параметр ReFrames формата : 4 кадра
Идентификатор кодека : V_MPEG4/ISO/AVC
Продолжительность : 24 м.
Битрейт : 2063 Кбит/сек
Ширина : 1280 пикселей
Высота : 720 пикселей
Соотношение сторон : 16:9
Режим частоты кадров : Постоянный
Частота кадров : 23,976 (24000/1001) кадра/сек
Цветовое пространство : YUV
Субдискретизация насыщенности : 4:2:0
Битовая глубина : 8 бит
Тип развёртки : Прогрессивная
Бит/(Пиксели*Кадры) : 0.093
Размер потока : 357 Мбайт (78%)
Заголовок : D_Gray_Man_Hallow_2016_S02E01_[ADStudio_&_Libria]_N.B_HDTVRip_720p
Библиотека кодирования : x264 core 148 r2705 3f5ed56
Настройки программы : cabac=1 / ref=3 / deblock=1:0:0 / analyse=0x1:0x111 / me=hex / subme=7 / psy=1 / psy_rd=1.00:0.00 / mixed_ref=1 / me_range=16 / chroma_me=1 / trellis=1 / 8x8dct=0 / cqm=0 / deadzone=21,11 / fast_pskip=1 / chroma_qp_offset=-2 / threads=12 / lookahead_threads=2 / sliced_threads=0 / nr=0 / decimate=1 / interlaced=0 / bluray_compat=0 / constrained_intra=0 / bframes=3 / b_pyramid=2 / b_adapt=1 / b_bias=0 / direct=1 / weightb=1 / open_gop=0 / weightp=2 / keyint=240 / keyint_min=1 / scenecut=40 / intra_refresh=0 / rc_lookahead=40 / rc=crf / mbtree=1 / crf=20.0 / qcomp=0.60 / qpmin=0 / qpmax=69 / qpstep=4 / ip_ratio=1.40 / aq=1:1.50
Язык : Japanese
Default : Да
Forced : Да
Цветовой диапазон : Limited
Основные цвета : BT.709
Характеристики трансфера : BT.709
Коэффициенты матрицы : BT.709
Аудио #1
Идентификатор : 3
Формат : AC-3
Формат/Информация : Audio Coding 3
Расширение режима : CM (complete main)
Параметр Endianness формата : Big
Идентификатор кодека : A_AC3
Продолжительность : 24 м.
Вид битрейта : Постоянный
Битрейт : 192 Кбит/сек
Каналы : 6 каналов
Расположение каналов : Front: L C R, Side: L R, LFE
Частота : 48,0 КГц
Частота кадров : 31,250 кадров/сек (1536 spf)
Метод сжатия : С потерями
Размер потока : 33,3 Мбайт (7%)
Заголовок : MVO AniDub ADStudio DD5.1@192kbps
Язык : Russian
Default : Да
Forced : Нет
Аудио #2
Идентификатор : 4
Формат : AC-3
Формат/Информация : Audio Coding 3
Расширение режима : CM (complete main)
Параметр Endianness формата : Big
Идентификатор кодека : A_AC3
Продолжительность : 24 м.
Вид битрейта : Постоянный
Битрейт : 192 Кбит/сек
Каналы : 6 каналов
Расположение каналов : Front: L C R, Side: L R, LFE
Частота : 48,0 КГц
Частота кадров : 31,250 кадров/сек (1536 spf)
Метод сжатия : С потерями
Размер потока : 33,2 Мбайт (7%)
Заголовок : MVO AniLibria Tv DD5.1@192kbps
Язык : Russian
Default : Нет
Forced : Нет
Аудио #3
Идентификатор : 5
Формат : AC-3
Формат/Информация : Audio Coding 3
Расширение режима : CM (complete main)
Параметр Endianness формата : Big
Идентификатор кодека : A_AC3
Продолжительность : 24 м.
Вид битрейта : Постоянный
Битрейт : 192 Кбит/сек
Каналы : 6 каналов
Расположение каналов : Front: L C R, Side: L R, LFE
Частота : 48,0 КГц
Частота кадров : 31,250 кадров/сек (1536 spf)
Метод сжатия : С потерями
Размер потока : 33,2 Мбайт (7%)
Заголовок : Original DD5.1@192kbps
Язык : Japanese
Default : Нет
Forced : Нет
Текст
Идентификатор : 2
Формат : ASS
Идентификатор кодека : S_TEXT/ASS
Идентификатор кодека/Информация : Advanced Sub Station Alpha
Продолжительность : 23 м.
Битрейт : 144 бит/сек
Count of elements : 324
Метод сжатия : Без потерь
Размер потока : 25,3 Кбайт (0%)
Заголовок : Rus
Язык : Russian
Default : Нет
Forced : Нет
--

Скриншоты

-- --

Как закачать отдельный файл

1. Открыть торрент
2. Снять галки с тех файлов торрента, которые мы не хотим закачивать. Оставляем только на нужных нам файлах (файле).
3. Нажать О.К.
В клиенте utorrent
Инструкция
1) Открыть торрент

2) Снять галки с тех файлов торрента, которые мы не хотим закачивать:
* либо вручную, снимая с каждого файла галку( скрин №1)
* либо, нажав кнопку "Снять метки (Select None)", сняв сразу со всех файлов(скрин №2)
№1

№2

Оставляем только на нужных нам файлах (файле).

3)Нажать О.К
-- -- --Внимание!!! 16.10. 2016. РАЗДАЧА ОБНОВЛЕНА. ФИНАЛ СЕЗОНА. ОБНОВИТЕ ТОРЕНТ ФАЙЛ.ПРИЯТНОГО ПРОСМОТРА . --Релиз от: Nikolai.Baranov & PIRATIYA -- -- -- --
[Profile]  [PM] 
Display posts:    
Reply to topic

Current time is: 19-Apr 10:56

All times are UTC + 2



You cannot post new topics in this forum
You cannot reply to topics in this forum
You cannot edit your posts in this forum
You cannot delete your posts in this forum
You cannot vote in polls in this forum
You cannot attach files in this forum
You cannot download files in this forum