Чужой (Сезон 1, Серия 1-24) (Георгий Даниелянц, Вадим Саетгалиев, Петр Забелин) [2014, Боевик, детектив, криминал, DVBRip-AVC]

Reply to topic
 
Author
Message

Враг Нароода ®

Gender: Unknown

Longevity: 5 years 8 months

Posts: 421

Reputation: 1 [+] [-]

Враг Нароода · Post 31-Dec-2014 16:54

[Quote] 

--Чужой-- --Год выпуска: 2014
Выпущено Россия , Форвард-Фильм
Жанр: Боевик, детектив, криминал
Продолжительность: 00:43:00
Сезон: 1
Серия: 1-24
Количество серий в сезоне: 24
Перевод :Не требуется
Субтитры: Нет
Обложка:,Обложка-- --Режиссер: Георгий Даниелянц, Вадим Саетгалиев, Петр Забелин--В ролях: Сергей Горобченко, Дмитрий Паламарчук, Кира Кауфман, Сергей Кошонин, Сергей Колос, Денис Горин, Наталья Андреева, Валентин Захаров (II), Валерия Сухачева, Мария Зимина (II), Анна Донченко, Ирина Гершт, Мария Шустрова, Александр Михайлов-Уральский, Владислав Петрушин, Роман Притула, Юрий Ковалёв, Кристина Оленникова, Мария Русских, Андрей Вергелис, Дмитрий Кузеняткин, Николай Колосов, Эрнест Тимерханов, Анна Енжаева-- Главный герой сериала, Михаил Аристов, после развода принимает решение вернуться на родину из Австралии, где работал рейнджером в национальном парке. Он абсолютно не представляет себе реалий жизни в современной России. Он привык к обществу равных перед законом людей, к полиции, которая это равенство защищает, к наказанию преступников, невзирая на персоналии. В результате случайного уличного конфликта на Аристова возбуждают уголовное дело.
Единственный, кто может ему помочь — начальник уголовного розыска одного из районов полковник Водяной, отчим старого школьного друга. В качестве ответной услуги, Водяной предлагает Аристову поработать в качестве его агента, став водителем салона элитного «эскорта». Он должен среди девушек, работающих в салоне, вычислить проститутку, связанную с преступниками, совершившим налет на особняк олигарха Акулина. Аристов и не представляет, к каким глобальным изменениям в его жизни, к каким драматическим событиям приведет его эта просьба.
-- --[Качество :DVBRip-AVC
Формат: MPEG-4
Видео кодек: H264
Видео: 3663Кбит/сек,1280х720(16.9),в 25.000кадр/сек,AVC(Baseline@L3.1)(1Ref Frames)
Аудио кодек: AAC
Аудио Russian: Dolby Digital 5.1:301Кбит/сек,48.0КГц,6каналов,AAC,(Version4)(LC)-- --

Доп. информация:

Звуковая дорожка сделана путем наложения чистого голоса озвучивателей на центральный канал оригинальной дорожки. Качество идентично звуковой дорожке.
--

Список эпизодов сезона


Фильм первый: Марсианин (1-4 серии)
Фильм второй: Кенгуру (5-8 серии)
Фильм третий: Даваз (9-12 серии)
Фильм четвертый: Арестант (13-16 серии)
Фильм пятый: Нелегал (17-20 серии)
Фильм шестой: Мертвец (21-24 серии)
--

MediaInfo СЕЗОНА

General
Полное имя : D:\Н А Ш Е К И Н О\Ч У Ж О Й\TCHUZOJ_S01_2014_RUS_[NTV_RUSSIA]_x264_Nikolai.Baranov_DVBRip-AVC\TCHUZOJ_S01E01_2014_RUS_[NTV_RUSSIA]_x264_Nikolai.Baranov_DVBRip-AVC.mp4
Формат : MPEG-4
Профиль формата : Base Media
Идентификатор кодека : isom
Размер файла : 1.28 GiB
Продолжительность : 46mn 11s
Режим общего битрейта : Variable
Общий поток : 3 969 Kbps
Дата кодирования : UTC 2014-12-26 14:02:57
Дата пометки : UTC 2014-12-26 14:02:57
Программа кодирования : Lavf51.12.1
Video
Идентификатор : 1
Формат : AVC
Формат/Информация : Advanced Video Codec
Профиль формата : Baseline@L3.1
Параметр CABAC формата : No
Параметр ReFrames формата : 1 frame
Параметр GOP формата : M=1, N=12
Идентификатор кодека : avc1
Идентификатор кодека/Информация : Advanced Video Coding
Продолжительность : 46mn 11s
Вид битрейта : Variable
Битрейт : 3 663 Kbps
Максимальный битрейт : 5 250 Kbps
Ширина : 1 280 pixels
Высота : 720 pixels
Соотношение сторон : 16:9
Режим частоты кадров : Constant
Частота кадров : 25.000 fps
Частота кадров в оригинале : 24.000 fps
Цветовое пространство : YUV
Субдискретизация насыщенности : 4:2:0
Битовая глубина : 8 bits
Тип развёртки : Progressive
Бит/(Пиксели*Кадры) : 0.159
Размер потока : 1.18 GiB (92%)
Дата кодирования : UTC 2014-12-26 14:02:57
Дата пометки : UTC 2014-12-26 14:02:57
Audio
Идентификатор : 2
Формат : AAC
Формат/Информация : Advanced Audio Codec
Профиль формата : LC
Идентификатор кодека : 40
Продолжительность : 46mn 11s
Вид битрейта : Variable
Битрейт : 301 Kbps
Каналы : 6 channels
Расположение каналов : Front: L C R, Side: L R, LFE
Частота : 48.0 KHz
Метод сжатия : Lossy
Размер потока : 99.6 MiB (8%)
Язык : English
Дата кодирования : UTC 2014-12-26 14:02:57
Дата пометки : UTC 2014-12-26 14:02:57
-- -- --

Как закачать отдельный файл

1. Открыть торрент
2. Снять галки с тех файлов торрента, которые мы не хотим закачивать. Оставляем только на нужных нам файлах (файле).
3. Нажать О.К.
В клиенте utorrent
Инструкция
1) Открыть торрент

2) Снять галки с тех файлов торрента, которые мы не хотим закачивать:
* либо вручную, снимая с каждого файла галку( скрин №1)
* либо, нажав кнопку "Снять метки (Select None)", сняв сразу со всех файлов(скрин №2)
№1

№2

Оставляем только на нужных нам файлах (файле).

3)Нажать О.К
-- -- --Релиз от: Nikolai.Baranov -- -- -- --
[Profile]  [PM] 
Display posts:    
Reply to topic

Current time is: 28-May 06:09

All times are UTC + 2



You cannot post new topics in this forum
You cannot reply to topics in this forum
You cannot edit your posts in this forum
You cannot delete your posts in this forum
You cannot vote in polls in this forum
You cannot attach files in this forum
You cannot download files in this forum