Родина (Сезон 1, Серия 1-12 из 12) (Павел Лунгин, Тамаш Т. Тот) [2015, Драма, Детектив, HDTVRip-AVC 1080p]

Reply to topic
 
Author
Message

Враг Нароода ®

Gender: Unknown

Longevity: 5 years 9 months

Posts: 424

Reputation: 1 [+] [-]

Враг Нароода · Post 20-Mar-2015 14:05

[Quote] 

--Родина Сезон 1, Серия 1-12 из 12 -- --Год выпуска: 2015
Выпущено: Россия , «ВайТ Медиа»
Жанр: Драма,Детектив
Продолжительность: 00:50:00
Сезон: 1
Серия: 1-12
Количество серий в сезоне: 12
Озвучка 4:Не требуется
Субтитры: НЕТ-- --Режиссер: Павел Лунгин, Тамаш Т. Тот--В ролях: Владимир Машков, Виктория Исакова, Мария Миронова, Сергей Маковецкий, Андрей Мерзликин, Мария Шалаева, Тимофей Трибунцев, Валериу Андриуцэ, Алиса Хазанова, Софья Хилькова, Эрик Холявко-Гришин, Владимир Вдовиченков, Юсуп Бахшиев, Аркадий Парсегов, Алексей Нестеренко, Ирина Вербицкая, Алексей Коваль, Саид Багов, Андрей Межулис, Рамиля Искандер, Даша Русакова, Сергей Макаров (IV), Алла Малкова, Илья Исаев-- В центре сюжета — противостояние майора Алексея Брагина и эксперта-аналитика контртеррористического центра — Анны Зиминой.
В ходе спецоперации на Северном Кавказе уничтожен лагерь по подготовке террористов и захвачен бункер, в котором обнаружен изможденный, прикованный к стене, заросший бородой человек. Это майор, Алексей Брагин. Шесть лет назад попав в засаду и потеряв большую часть товарищей, Брагин попадает в плен. Его признают пропавшим без вести. Уезжая в последнюю командировку, Брагин оставил в Москве семью — жену Елену, трехлетнего сына Ивана и девятилетнюю дочь Катю.
Теперь он возвращается в мирную жизнь, где его уже, к сожалению, перестали ждать. Брагин пытается восстановить отношения с женой и дочерью, сблизиться с сыном, но кроме очевидных сложностей, мы видим и понимаем, что у него есть какая-то тайна, которую он тщательно скрывает даже от самых близких.
Несмотря на ореол героя, после первых же допросов Брагина, Анна Зимина начинает подозревать, что тот завербован террористами. Основываясь на собственном опыте и интуиции, Анна старается разгадать тайну Брагина.
-- --Качество :HDTVRip-AVC 1080p
Формат: MPEG-4
Видео кодек: H264
Видео: 7297Кбит/сек,1920х1080(16.9),в 25.000кадр/сек,AVC(Baseline@L4.0)(1Ref Frames)
Аудио кодек: AAC
Аудио Russian Dolby Digital 5.1:288Кбит/сек,48.0КГц,6каналов,AAC,(Version4)--

MediaInfo сезона

General
Полное имя : G:\Н А Ш Е К И Н О\РОДИНА\RODINA_2015_S01_RUS[RUSSIA]_DD5.1_H264_Nikolai.Baranov_HDTVRip-AVC_(1080p)\RODINA_2015_S01Е01_RUS[RUSSIA]_DD5.1_H264_Nikolai.Baranov_HDTVRip-AVC_(1080p).mp4
Формат : MPEG-4
Профиль формата : Base Media
Идентификатор кодека : isom
Размер файла : 3.61 GiB
Продолжительность : 1h 8mn
Режим общего битрейта : Variable
Общий поток : 7 593 Kbps
Название фильма : Black Sails 2x08 @ AlexFilm
Дата кодирования : UTC 2015-03-18 12:31:47
Дата пометки : UTC 2015-03-18 12:31:47
Программа кодирования : Lavf51.12.1
Video
Идентификатор : 1
Формат : AVC
Формат/Информация : Advanced Video Codec
Профиль формата : Baseline@L4.0
Параметр CABAC формата : No
Параметр ReFrames формата : 1 frame
Параметр GOP формата : M=1, N=12
Идентификатор кодека : avc1
Идентификатор кодека/Информация : Advanced Video Coding
Продолжительность : 1h 8mn
Вид битрейта : Variable
Битрейт : 7 297 Kbps
Максимальный битрейт : 10.5 Mbps
Ширина : 1 920 pixels
Высота : 1 080 pixels
Соотношение сторон : 16:9
Режим частоты кадров : Constant
Частота кадров : 25.000 fps
Частота кадров в оригинале : 24.000 fps
Цветовое пространство : YUV
Субдискретизация насыщенности : 4:2:0
Битовая глубина : 8 bits
Тип развёртки : Progressive
Бит/(Пиксели*Кадры) : 0.141
Размер потока : 3.47 GiB (96%)
Дата кодирования : UTC 2015-03-18 12:31:47
Дата пометки : UTC 2015-03-18 12:31:47
Audio
Идентификатор : 2
Формат : AAC
Формат/Информация : Advanced Audio Codec
Профиль формата : LC
Идентификатор кодека : 40
Продолжительность : 1h 8mn
Вид битрейта : Variable
Битрейт : 288 Kbps
Каналы : 2 channels
Channel(s)_Original : 6 channels
Расположение каналов : Front: L C R, Side: L R, LFE
Частота : 48.0 KHz
Метод сжатия : Lossy
Размер потока : 142 MiB (4%)
Дата кодирования : UTC 2015-03-18 12:31:47
Дата пометки : UTC 2015-03-18 12:31:47
--

Скриншоты

-- --

Как закачать отдельный файл

1. Открыть торрент
2. Снять галки с тех файлов торрента, которые мы не хотим закачивать. Оставляем только на нужных нам файлах (файле).
3. Нажать О.К.
В клиенте utorrent
Инструкция
1) Открыть торрент

2) Снять галки с тех файлов торрента, которые мы не хотим закачивать:
* либо вручную, снимая с каждого файла галку( скрин №1)
* либо, нажав кнопку "Снять метки (Select None)", сняв сразу со всех файлов(скрин №2)
№1

№2

Оставляем только на нужных нам файлах (файле).

3)Нажать О.К
-- -- --Внимание!!! 27.03. 2015. РАЗДАЧА ОБНОВЛЕНА.ФИНАЛ СЕЗОНА. ОБНОВИТЕ ТОРЕНТ ФАЙЛ.ПРИЯТНОГО ПРОСМОТРА . --Релиз от: Nikolai.Baranov -- -- -- --
[Profile]  [PM] 
Display posts:    
Reply to topic

Current time is: 03-Jun 15:58

All times are UTC + 2



You cannot post new topics in this forum
You cannot reply to topics in this forum
You cannot edit your posts in this forum
You cannot delete your posts in this forum
You cannot vote in polls in this forum
You cannot attach files in this forum
You cannot download files in this forum