Чёрная река (Серии 1-8 из 8) (Стас Иванов) [2015, Детектив, драма, боевик, DVBRip-AVC]

Reply to topic
 
Author
Message

Враг Нароода ®

Gender: Unknown

Longevity: 5 years 8 months

Posts: 421

Reputation: 1 [+] [-]

Враг Нароода · Post 23-May-2015 14:50

[Quote] 

--Чёрная река 1-8 серий из 8 -- --Год выпуска: 2015
Выпущено Россия , Студия "Сокол"
Жанр: Детектив, драма, боевик
Продолжительность: 00:45:00
Серия: 1-8
Количество серий в сезоне: 8
Перевод :Не требуется
Субтитры: Нет-- --Режиссер: Стас Иванов--В ролях:Павел Трубинер, Анастасия Стежко, Владимир Селезнёв (II), Андрей Филиппак, Семён Шкаликов, Антонина Комиссарова, Павел Делонг, Дарья Повереннова, Кирилл Каганович, Анастасия Сорокина, Юрий Цурило, Ерболат Тогузаков, Роза Хайруллина, Михаил Гаврилов, Владимир Матвеев, Дмитрий Лавров (III), Валерий Панков, Максим Меркулов, Владимир Устюгов, Глеб Степан Каллистов, Игорь Климов, Сергей Гузеев, Яна Чигир -- Тихую, размеренную жизнь небольшого сибирского городка Белогорска потрясает таинственное исчезновение целой вахты нефтяников, работающих на одном из близлежащих месторождений. Владеющая месторождением нефтяная компания «Байкал-нефть» пытается скрыть факт исчезновения своих сотрудников, однако город уже наполнился слухами о том, что на рабочих было совершено нападение. Действия полиции сковывает весьма конкретная директива из столицы — замять дело.
В Белогорск приезжает внештатный сотрудник компании «Байкал-нефть» Алексей Ковалев, перед которым стоит задача разобраться в случившемся.
Среди всех местных жителей особенное внимание Ковалева приковывает его новая соседка Лена, учительница в местном поселке, у которой несколько лет назад в тайге пропал муж. Лена родом из Москвы, где ее ждут родители и друзья. Почему эта хрупкая на вид девушка все еще здесь?
Ковалев начинает понимать, что недавнее исчезновение нефтяников и пропажа мужа Лены — Сергея, как-то связаны между собой. Лена начинает чувствовать, что с появлением Ковалева она впервые за долгие два года близка к разгадке исчезновения Сергея, но готова ли Лена узнать правду?
-- --Качество :DVBRip-AVC
Формат: MPEG-4
Видео кодек: H264
Видео: 3135Кбит/сек,1024х576(16.9),в 25.000кадр/сек,AVC(Baseline@L3.1)(1Ref Frames)
Аудио кодек: AAC
Аудио Russian: Dolby Digital 5.1:288Кбит/сек,48.0КГц,6каналов,AAC,(Version4)(LC)--

MediaInfo

Общее
Полное имя : D:\К И Н О\ЧЁРНАЯ РЕКА\CHERNAY_REKA_2015_RUS_RUS[NTV_RUSSIA]_DD5.1_H264_Nikolai.Baranov_DVBRip-AVC\CHERNAY_REKA_2015_E01_E02_RUS_RUS[NTV_RUSSIA]_DD5.1_H264_Nikolai.Baranov_DVBRip-AVC.mp4
Формат : MPEG-4
Профиль формата : Base Media
Идентификатор кодека : isom
Размер файла : 2,15 Гбайт
Продолжительность : 1 ч. 29 м.
Режим общего битрейта : Переменный
Общий поток : 3424 Кбит/сек
Дата кодирования : UTC 2015-05-21 17:29:24
Дата пометки : UTC 2015-05-21 17:29:24
Видео
Идентификатор : 1
Формат : AVC
Формат/Информация : Advanced Video Codec
Профиль формата : Baseline@L3.1
Параметр CABAC формата : Нет
Параметр ReFrames формата : 1 кадр
Параметр GOP формата : M=1, N=12
Идентификатор кодека : avc1
Идентификатор кодека/Информация : Advanced Video Coding
Продолжительность : 1 ч. 29 м.
Вид битрейта : Переменный
Битрейт : 3135 Кбит/сек
Максимальный битрейт : 4500 Кбит/сек
Ширина : 1024 пикселя
Высота : 576 пикселей
Соотношение сторон : 16:9
Режим частоты кадров : Постоянный
Частота кадров : 25,000 кадров/сек
Частота кадров в оригинале : 24,000 кадра/сек
Цветовое пространство : YUV
Субдискретизация насыщенности : 4:2:0
Битовая глубина : 8 бит
Тип развёртки : Прогрессивная
Бит/(Пиксели*Кадры) : 0.213
Размер потока : 1,97 Гбайт (92%)
Дата кодирования : UTC 2015-05-22 14:13:25
Дата пометки : UTC 2015-05-21 17:33:42
Аудио
Идентификатор : 2
Формат : AAC
Формат/Информация : Advanced Audio Codec
Профиль формата : LC
Идентификатор кодека : 40
Продолжительность : 1 ч. 29 м.
Вид битрейта : Переменный
Битрейт : 288 Кбит/сек
Максимальный битрейт : 357 Кбит/сек
Каналы : 2 канала
Channel(s)_Original : 6 каналов
Расположение каналов : Front: L C R, Side: L R, LFE
Частота : 48,0 КГц
Метод сжатия : С потерями
Размер потока : 184 Мбайт (8%)
Дата кодирования : UTC 2015-05-21 17:30:25
Дата пометки : UTC 2015-05-21 17:33:42
--

Скриншоты

-- ---- -- --Релиз от: Nikolai.Baranov -- -- -- ---
[Profile]  [PM] 
Display posts:    
Reply to topic

Current time is: 25-May 19:28

All times are UTC + 2



You cannot post new topics in this forum
You cannot reply to topics in this forum
You cannot edit your posts in this forum
You cannot delete your posts in this forum
You cannot vote in polls in this forum
You cannot attach files in this forum
You cannot download files in this forum