Битва за Севастополь / Незламна (Расширенная телеверсия) (Серии 1-4 из 4) (Сергей Мокрицкий) [2015, Военный, ВОВ, драма, реальные события, HDTVRip-AVC 1080p]

Reply to topic
 
Author
Message

Враг Нароода ®

Gender: Unknown

Longevity: 7 years 3 months

Posts: 502

Reputation: 1 [+] [-]

Враг Нароода · Post 03-Jun-2015 10:36

[Quote] 

--Битва за Севастополь /Незламна (Расширенная телеверсия) Серии 1-4 из 4-- --Год выпуска: 2015
Выпущено Россия , Украина , Новые люди
Жанр: Военный, ВОВ, драма, реальные события
Продолжительность: 00:45:00
Серия: 1-4
Количество серий в сезоне: 4
Перевод :Не требуется
Субтитры: Нет------Режиссер: Сергей Мокрицкий--В ролях:Юлия Пересильд, Евгений Цыганов, Олег Васильков, Никита Тарасов, Джоан Блэкэм, Полина Пахомова, Владимир Лилицкий, Анатолий Кот, Нателла Абелева-Таганова, Валерий Гришко, Сергей Барковский, Виталий Линецкий, Сергей Пускепалис, Геннадий Ченцов, Светлана Осадченко, Алла Сергийко, Станислав Боклан, Дмитрий Лаленков, Станислав Лесной, Сергей Сипливый-- Любовь под нескончаемым огнем противника, дружба с Элеонорой Рузвельт, выступление на конференции, повлиявшее на исход Второй мировой войны, желание жить и страх потерять любимого человека — справится ли со всем этим хрупкая женщина?
Это реальная история Людмилы Павличенко — легендарной женщины-снайпера. Солдаты шли в бой с ее именем на устах, а враги устроили на нее охоту. На поле битвы она видела смерть и страдания, но самым серьезным испытанием для нее стала любовь, которую у нее могла забрать война…
-- --Качество :HDTVRip-AVC 1080p
Формат: MPEG-4
Видео кодек: H264
Видео: 7834Кбит/сек,1920х1080(16.9),в 25.000кадр/сек,AVC(Baseline@L4.0)(1Ref Frames)
Аудио кодек: AAC
Аудио Russian Dolby Digital 5.1:227Кбит/сек,48.0КГц,6каналов,AAC,(Version4)--

MediaInfo

Общее
Полное имя : E:\К И Н О\Н А Ш Е К И Н О\БИТВА ЗА СЕВАСТОПОЛЬ\BITVA_ZA_SEVASTOPOL_2015_RUS[RUSSIA]_DD5.1_H264_Nikolai.Baranov_HDTVRip-AVC_1080p\BITVA_ZA_SEVASTOPOL_Е01_-_Е04_RUS[RUSSIA]_DD5.1_H264_Nikolai.Baranov_HDTVRip-AVC_1080p.mp4
Формат : MPEG-4
Профиль формата : Base Media
Идентификатор кодека : isom
Размер файла : 10,1 Гбайт
Продолжительность : 2 ч. 59 м.
Режим общего битрейта : Переменный
Общий поток : 8060 Кбит/сек
Дата кодирования : UTC 2015-05-29 05:20:31
Дата пометки : UTC 2015-05-29 05:20:31
Видео
Идентификатор : 1
Формат : AVC
Формат/Информация : Advanced Video Codec
Профиль формата : Baseline@L4
Параметр CABAC формата : Нет
Параметр ReFrames формата : 1 кадр
Параметр GOP формата : M=1, N=12
Идентификатор кодека : avc1
Идентификатор кодека/Информация : Advanced Video Coding
Продолжительность : 2 ч. 59 м.
Вид битрейта : Переменный
Битрейт : 7834 Кбит/сек
Максимальный битрейт : 11,2 Мбит/сек
Ширина : 1920 пикселей
Высота : 1080 пикселей
Соотношение сторон : 16:9
Режим частоты кадров : Постоянный
Частота кадров : 25,000 кадров/сек
Частота кадров в оригинале : 24,000 кадра/сек
Цветовое пространство : YUV
Субдискретизация насыщенности : 4:2:0
Битовая глубина : 8 бит
Тип развёртки : Прогрессивная
Бит/(Пиксели*Кадры) : 0.151
Размер потока : 9,83 Гбайт (97%)
Дата кодирования : UTC 2015-05-29 13:46:58
Дата пометки : UTC 2015-05-29 05:39:30
Аудио
Идентификатор : 2
Формат : AAC
Формат/Информация : Advanced Audio Codec
Профиль формата : LC
Идентификатор кодека : 40
Продолжительность : 2 ч. 59 м.
Вид битрейта : Переменный
Битрейт : 227 Кбит/сек
Максимальный битрейт : 292 Кбит/сек
Каналы : 2 канала
Channel(s)_Original : 6 каналов
Расположение каналов : Front: L C R, Side: L R, LFE
Частота : 48,0 КГц
Метод сжатия : С потерями
Размер потока : 287 Мбайт (3%)
Язык : Russian
Дата кодирования : UTC 2015-05-29 05:25:15
Дата пометки : UTC 2015-05-29 05:39:30
--

Скриншоты

-- -- -- --Релиз от: Nikolai.Baranov -- -- -- --
[Profile]  [PM] 
Display posts:    
Reply to topic

Current time is: 04-Dec 01:23

All times are UTC + 2



You cannot post new topics in this forum
You cannot reply to topics in this forum
You cannot edit your posts in this forum
You cannot delete your posts in this forum
You cannot vote in polls in this forum
You cannot attach files in this forum
You cannot download files in this forum