Мажор [Сезон 2, серии 1-12 из 12] [2016 г., Криминал, драма, HDTVRip]

Reply to topic
 
Author
Message

groozin ®

Gender: Male

Longevity: 3 years 9 months

Posts: 45

Reputation: 0 [+] [-]

Location: ЛНР

groozin · Post 16-Nov-2016 18:35

[Quote] 

Мажор-2-«Умереть, чтобы родиться»

Год выпуска: 2016
Страна: Россия / ООО "Студия Русский Проект"
Жанр: Криминал, драма
Серия: 1-12 из 12
Сезон: 2
Продолжительность: ~00:48:00 серия
Перевод: Не требуется. Язык- русский.
Режиссеры: Николай Булыгин, Максим Полинский
В ролях: Павел Прилучный, Карина Разумовская, Дмитрий Шевченко, Денис Шведов, Александр Обласов, Дана Абызова, Анна Цуканова-Котт, Любовь Аксёнова, Игорь Жижикин, Дмитрий Лысенков, Анна Вартанян, Игорь Черневич, Александр Марушев, Ольга Филиппова, Виктор Цекало, Вера Брежнева, Михаил Самохвалов, Ирена Куксенайте, Михаил Елисеев, Александр Сластин, Анастасия Никитина, Михаил Батуев, Эмилия Спивак, Анастасия Лифанова, Лайма Рожукайте, Владимир Шабельников, Николай Краснопёров, Алла Одинг, Евгений Сиротин, Екатерина Новикова, Дмитрий Семёнов (V), Григорий Воскобойник, Роман Киселёв, Ольга Одинцова, Инна Горбикова, Илья Борисов, Андрей Астраханцев, Никита Панфилов, Олег Гаас, Вадим Лымарь, Алла Еминцева, Галина Сидорова, Константин Фисенко, Сергей Сафронов, Кира Кауфман, Валерий Дегтярь, Гала Самойлова, Евгений Капитонов, Даниил Вотев, Юрий Орлов (II), Галина Стрижевская, Валерий Скляров, Виктор Терехов, Максим Клименко, Павел Маковкин, Спартак Кондауров, Юрий Лазарев, Вадим Бурлаков, Надежда Шумилова, Татьяна Егорова (III), Степан Бекетов, Александр Клемантович, Константин ГаёхоОписание:            Эта история о классовых противостояниях, и речь идёт не о школьных занятиях, а о серьёзных, зрелых человеческих отношениях. Некоторые люди не желают признавать деление на разные слои населения. Но от правды не уйдёшь. Кому-то достаётся больше власти, денег, ответственности и в результате больших проблем. А кто-то живёт спокойной жизнью, на скромную зарплату и только то и делает, что мечтает о миллионах. Люди всегда делились на такие финансовые подгруппы, но всегда честно отвечали о своих финансовых доходах.
            Финал первого сезона одного из самых успешных отечественных сериалов неожиданно для многих был открытым. Зрители в замешательстве ждали продолжения, ведь будущее главного героя они видели совсем не таким как камера СИЗО, потеря близких и разбитое сердце. В новом сезоне Игорь Соколовский выходит из заключения так же неожиданно, как он в него попал. Несмотря на то, что он возвращается на работу в полицию и наследует бизнес отца, на уме у молодого человека только месть. Кроме того, Игоря терзает недосказанность в отношениях с коллегой Викой, которая отменила из-за него свою свадьбу с другим сослуживцем.
16+         Рейтинг R- зрителям, достигшим 16 лет-

Внимание!

Раздача ведётся путём добавления новых серий; при каждом добавлении создаётся новый торрент. Чтобы начать докачку новой серии, пользователям необходимо сделать следующее:
(1) остановить скачивание,
(2) удалить старый торрент у себя из клиента (старые серии удалять не надо),
(3) скачать новый торрент и запустить его у себя в клиенте вместо старого, при этом указать клиенту путь в старую папку куда и должно происходить скачивание новых серий.
Ваш клиент при этом должен произвести хеширование (проверку) старой папки (если не производит сам - помогите ему сделать это), и будет докачивать только те серии которых у вас ещё нет. Старые серии при этом не удаляются, а продолжают раздаваться!
Eсли вы уже удалили старые серии, то предотвратить повторную закачку старых серий можно, отжав галочку в соответсвующих местах при запуске нового торрента. По возможности, желательно не удалять старые серии как можно дольше чтобы релизёр не столько продолжал раздавать старые серии, а смог сконцентрироваться на новых.

MediaInfo:

Общее
Полное имя : E:\TORRENTY\Serial\Mazhor-2.2016.HDTVRip\Mazhor-2.2016.HDTVRip\Mazhor-2.(01).HDTVRip.avi
Формат : AVI
Формат/Информация : Audio Video Interleave
Размер файла : 693 Мбайт
Продолжительность : 48 м.
Общий поток : 2001 Кбит/сек
Программа кодирования : VirtualDubMod 1.5.10.3 (build 2550/release)
Библиотека кодирования : VirtualDubMod build 2550/release
Видео
Идентификатор : 0
Формат : MPEG-4 Visual
Профиль формата : Advanced Simple@L5
Параметр BVOP формата : 1
Параметр QPel формата : Нет
Параметр GMC формата : Без точки перехода
Параметр матрицы формата : Выборочная
Идентификатор кодека : XVID
Идентификатор кодека/Подсказка : XviD
Продолжительность : 48 м.
Битрейт : 1800 Кбит/сек
Ширина : 720 пикселей
Высота : 400 пикселей
Соотношение сторон : 16:9
Частота кадров : 25,000 кадров/сек
Цветовое пространство : YUV
Субдискретизация насыщенности : 4:2:0
Битовая глубина : 8 бит
Тип развёртки : Прогрессивная
Метод сжатия : С потерями
Бит/(Пиксели*Кадры) : 0.250
Размер потока : 624 Мбайт (90%)
Библиотека кодирования : XviD 73
Аудио
Идентификатор : 1
Формат : AC-3
Формат/Информация : Audio Coding 3
Расширение режима : CM (complete main)
Параметр Endianness формата : Big
Идентификатор кодека : 2000
Продолжительность : 48 м.
Вид битрейта : Постоянный
Битрейт : 192 Кбит/сек
Каналы : 2 канала
Расположение каналов : Front: L R
Частота : 48,0 КГц
Частота кадров : 31,250 кадров/сек (1536 spf)
Метод сжатия : С потерями
Размер потока : 66,5 Мбайт (10%)
Выравнивание : Разделение по промежуткам
Продолжительность промежутка : 40 мс. (1,00 видеокадр)
Время предзагрузки промежутка : 500 мс.
Качество: HDTVRip
Формат: AVI
Данные видео: XviD, 720x400, ~1800 kbps avg, 25.000 fps, ~0.250 bit/pixel
Данные аудио: АС3, 192 Kbps, 48.0 KHz, 2ch

Скриншоты


[Profile]  [PM] 
Display posts:    
Reply to topic

Current time is: 28-May 06:17

All times are UTC + 2



You cannot post new topics in this forum
You cannot reply to topics in this forum
You cannot edit your posts in this forum
You cannot delete your posts in this forum
You cannot vote in polls in this forum
You cannot attach files in this forum
You cannot download files in this forum