София (София Палеолог) / Sofia (Серии 1-8 из 8) (Алексей Андрианов) [2016, Мелодрама, исторический , HDTVRipi 1080p] [DD5.1]

Reply to topic
 
Author
Message

Враг Нароода ®

Gender: Unknown

Longevity: 5 years 8 months

Posts: 421

Reputation: 1 [+] [-]

Враг Нароода · Post 02-Dec-2016 20:34

[Quote] 

--София (София Палеолог) / Sofia Серии 1-8 из 8-- --Год выпуска: 2016
Выпущено: Россия , кинокомпания «Москино» по заказу телеканала Россия 1 и Министерства Культуры РФ
Жанр:Мелодрама, исторический
Продолжительность: 00:50:00
Серии: 1-8
Количество серий в сезоне: 8
Озвучка : -Русский
Субтитры: НЕТ
-- --Режиссер:
Алексей Андрианов--В ролях: Мария Андреева, Евгений Цыганов, Александр Балуев, Надежда Маркина, Пётр Зайченко, Борис Невзоров, София Никитчук, Сергей Пускепалис, Илья Ильиных, Николай Козак, Борис Токарев (II), Мириам Сехон, Джулиано Ди Капуа, Егор Корешков, Анатолий Узденский, Сергей Борисов (III), Иван Вакуленко, Иван Колесников, Сергей Марин, Алиса Сапегина, Максим Радугин, Андрей Невраев, Ксения Радченко (I), Владас Багдонас, Лидия Байрашевская, Амаду Мамадаков, Андрей Евдокимов (II), Сейдулла Молдаханов, Оксана Пчелинова, Владислав Павлов, Семён Трескунов, Кирилл Козаков, Геннадий Суворов
-- История средневековой Руси глазами Софии Палеолог, последней наследницы византийского престола, жены московского князя Ивана III и бабушки Ивана Грозного. О фильме:
Вторая половина XV века: Русь уже два столетия под гнетом монголо-татарского ига. Иван III, князь Московский, в целях укрепления государства принимает решение о заключении брака с византийской принцессой Зоей Палеолог. После того как турки захватили Константинополь, спасшиеся члены династии византийских императоров Палеологов бежали и нашли покровительство у Папы в Риме. Папа Римский хочет отдать Зою в жены московскому князю с расчетом усилить влияние католической церкви на Руси – однако Зоя, принявшая при крещении имя София, не оправдывает его надежд. Прибыв на русскую землю, она демонстрирует верность новой родине и вере своих предков, православных христиан. Москва встречает новую правительницу неласково. Бояре и митрополит московский Филипп настроены против брака. Решение Ивана Ш о заключении брака принесло московской земле необычайную выгоду: этим браком он укрепляет свой статус Великого Князя, становится более значимым участником европейской политики, а, главное, приобретает настоящую соратницу и единомышленницу. Именно благодаря твердой поддержке Софии князь принимает судьбоносное решение, положившее конец татаро-монгольскому игу на Руси, а также прекращает феодальные междоусобицы.-- --Качество : HDTV 1080i
Формат: MKV
Видео кодек: H264
Видео: 8366Kбит/сек,1920х1080(16.9),в 25.000кадр/сек,AVC (High@L4)(CABAC/2 Ref Frames)
Аудио Кодек:AC3
Аудио #:AC3 , 192 Kbps, 48.0 KHz, 6 ch-Русский--

MediaInfo

Общее
Уникальный идентификатор : 176257046605647021743736997779435688738 (0x8499DF5563FEA698997B58DD20E01322)
Полное имя : C:\ПИРАТИЯ(PIRATIYA)\СОФИЯ(Sofia)\SOFIA_2016_E01-E08_Rus[Russia-1]_DD5.1_N.B_HDTV_1080i\Sofia_2016_E01-E04_Rus[Russia-1]_DD5.1_N.B_HDTV_1080i.mkv
Формат : Matroska
Версия формата : Version 4 / Version 2
Размер файла : 12,1 Гбайт
Продолжительность : 3 ч. 23 м.
Режим общего битрейта : Переменный
Общий поток : 8560 Кбит/сек
Название фильма : Sofia_2016_E01-E04_Rus[Russia-1]_DD5.1_N.B_HDTV_1080i
Дата кодирования : UTC 2016-12-02 13:30:25
Программа кодирования : mkvmerge v9.6.0 ('Slave To Your Mind') 64bit
Библиотека кодирования : libebml v1.3.4 + libmatroska v1.4.5
Видео
Идентификатор : 1
Формат : AVC
Формат/Информация : Advanced Video Codec
Профиль формата : High@L4
Параметр CABAC формата : Да
Параметр ReFrames формата : 2 кадра
Параметр GOP формата : M=2, N=15
Идентификатор кодека : V_MPEG4/ISO/AVC
Продолжительность : 3 ч. 23 м.
Вид битрейта : Переменный
Битрейт : 8366 Кбит/сек
Максимальный битрейт : 16,0 Мбит/сек
Ширина : 1920 пикселей
Высота : 1080 пикселей
Соотношение сторон : 16:9
Режим частоты кадров : Переменный
Частота кадров : 25,000 кадров/сек
Частота кадров в оригинале : 29,970 (30000/1001) кадров/сек
Цветовое пространство : YUV
Субдискретизация насыщенности : 4:2:0
Битовая глубина : 8 бит
Тип развёртки : Прогрессивная
Бит/(Пиксели*Кадры) : 0.161
Размер потока : 11,9 Гбайт (98%)
Заголовок : Sofia_2016_E01-E04_Rus[Russia-1]_DD5.1_N.B_HDTV_1080i
Язык : Russian
Default : Нет
Forced : Нет
Аудио
Идентификатор : 2
Формат : AC-3
Формат/Информация : Audio Coding 3
Расширение режима : CM (complete main)
Параметр Endianness формата : Big
Идентификатор кодека : A_AC3
Продолжительность : 3 ч. 23 м.
Вид битрейта : Постоянный
Битрейт : 192 Кбит/сек
Каналы : 6 каналов
Расположение каналов : Front: L C R, Side: L R, LFE
Частота : 48,0 КГц
Частота кадров : 31,250 кадров/сек (1536 spf)
Битовая глубина : 16 бит
Метод сжатия : С потерями
Размер потока : 279 Мбайт (2%)
Заголовок : Russia-1
Язык : Russian
Default : Нет
Forced : Нет
--

Скриншоты

-- -- -- --Релиз от: Nikolai.Baranov & PIRATIYA -- -- -- --
[Profile]  [PM] 
Display posts:    
Reply to topic

Current time is: 25-May 21:00

All times are UTC + 2



You cannot post new topics in this forum
You cannot reply to topics in this forum
You cannot edit your posts in this forum
You cannot delete your posts in this forum
You cannot vote in polls in this forum
You cannot attach files in this forum
You cannot download files in this forum