Штрафник / The penalty box (Серии 1-12 из 12) Олег Фомин) [2017, Детектив , HDTVRip 1080i] [DD5.1]

Reply to topic
 
Author
Message

Враг Нароода ®

Gender: Unknown

Longevity: 5 years 9 months

Posts: 424

Reputation: 1 [+] [-]

Враг Нароода · Post 06-Mar-2017 11:32

[Quote] 

--Штрафник / The penalty box Серии 1-12 из 12 -- --Год выпуска: 2017
Выпущено: Россия, Украина, Star Media
Жанр:Детектив
Продолжительность: 00:50:00
Серии: 1-12
Количество серий в сезоне: 12
Озвучка : -Русский
Субтитры: НЕТ
--Кинопоиск--Режиссер:
Олег Фомин--В ролях: Кирилл Сафонов, Иева Андреевайте, Екатерина Волкова (I), Максим Дрозд, Анастасия Немец, Константин Милованов, Олег Фомин, Евгений Мундум, Рустам Сагдуллаев, Евгений Куршинский, Дмитрий Куличков, Александр Шам, Михаил Дорожкин, Константин Гацалов, Алеся Гузько, Игорь Литовкин (II), Наталья Беляева, Алексей Хаустов, Игорь Кулачко, Анна Тараторкина, Денис Константинов, Александр Лойе, Влад Красавин, Виктория Лукина, Екатерина Мадалинская, Сергей Серов, Вячеслав Щенин, Эдуард Федашко, Роман Гредин, Кирилл Дубровицкий, Лидия Копина, Кирилл Захаров, Егор Новокшонов
-- Капитан Игнат Белов возвращается домой после окончания службы. В поезде он встречает преступника Сыча, которого знает с детства. Много лет назад Сыч с малолетними подельниками втянул маленького Игната в ограбление склада с тушёнкой. Получилось так, что Игнат спас Сыча, попавшего в ловушку, но дальше их дороги разошлись. Сыч рад встрече и предлагает Игнату еще раз рискнуть, но тот отказывается. Заподозрив, что «кореш» что-то задумал, Игнат решает ему помешать.-- --Качество : HDTV 1080i
Формат: MKV
Видео кодек: H264
Видео: 6338Kбит/сек,1920х1080(16.9),в 25.046кадр/сек,AVC (High@L4)(CABAC/2 Ref Frames)
Аудио Кодек:AC3
Аудио #:AC3 , 384 Kbps, 48.0 KHz, 6 ch-Русский--

MediaInfo

Общее
Уникальный идентификатор : 199509912909012776268650354689717697235 (0x96183627F7AE644F996FB8406851FAD3)
Полное имя : C:\ПИРАТИЯ(PIRATIYA)\HDTV 1080p\ШТРАФНИК ( The penalty box )\The_Рenalty_Box_2017_S01_Rus_1canal_Russia_H264_DD5.1_N.B_HDTV_1080i\The_Рenalty_Box_2017_E01-E02_Rus_1canal_Russia_H264_DD5.1_N.B_HDTV_1080i.mkv
Формат : Matroska
Версия формата : Version 4 / Version 2
Размер файла : 4,84 Гбайт
Продолжительность : 1 ч. 43 м.
Режим общего битрейта : Переменный
Общий поток : 6724 Кбит/сек
Название фильма : The_Рenalty_Box_2017_E01-E02_Rus_1canal_Russia_H264_DD5.1_N.B_HDTV_1080i
Дата кодирования : UTC 2017-03-03 08:59:48
Программа кодирования : mkvmerge v9.9.0 ('Pick Up') 64bit
Библиотека кодирования : libebml v1.3.4 + libmatroska v1.4.5
Видео
Идентификатор : 1
Формат : AVC
Формат/Информация : Advanced Video Codec
Профиль формата : High@L4
Параметр CABAC формата : Да
Параметр ReFrames формата : 2 кадра
Параметр GOP формата : M=2, N=15
Идентификатор кодека : V_MPEG4/ISO/AVC
Продолжительность : 1 ч. 43 м.
Вид битрейта : Переменный
Битрейт : 6338 Кбит/сек
Максимальный битрейт : 16,0 Мбит/сек
Ширина : 1920 пикселей
Высота : 1080 пикселей
Соотношение сторон : 16:9
Режим частоты кадров : Переменный
Частота кадров : 25,046 кадров/сек
Частота кадров в оригинале : 29,970 (30000/1001) кадров/сек
Цветовое пространство : YUV
Субдискретизация насыщенности : 4:2:0
Битовая глубина : 8 бит
Тип развёртки : Прогрессивная
Бит/(Пиксели*Кадры) : 0.122
Размер потока : 4,56 Гбайт (94%)
Заголовок : The_Рenalty_Box_2017_E01-E02_Rus_1canal_Russia_H264_DD5.1_N.B_HDTV_1080i
Язык : Russian
Default : Нет
Forced : Нет
Аудио
Идентификатор : 2
Формат : AC-3
Формат/Информация : Audio Coding 3
Параметр Endianness формата : Big
Идентификатор кодека : A_AC3
Продолжительность : 1 ч. 43 м.
Вид битрейта : Постоянный
Битрейт : 384 Кбит/сек
Каналы : 6 каналов
Расположение каналов : Front: L C R, Side: L R, LFE
Частота : 48,0 КГц
Частота кадров : 31,250 кадров/сек (1536 spf)
Битовая глубина : 16 бит
Метод сжатия : С потерями
Размер потока : 283 Мбайт (6%)
Заголовок : Original@DD5.1 AC3 ,384 Kbps, 48.0 KHz, 6 ch
Язык : Russian
ServiceKind/String : Complete Main
Default : Нет
Forced : Нет
Меню
00:00:00.000 : en:Глава 01 / en:Глава 01
--

Скриншоты

-- --

Как закачать отдельный файл

1. Открыть торрент
2. Снять галки с тех файлов торрента, которые мы не хотим закачивать. Оставляем только на нужных нам файлах (файле).
3. Нажать О.К.
В клиенте utorrent
Инструкция
1) Открыть торрент

2) Снять галки с тех файлов торрента, которые мы не хотим закачивать:
* либо вручную, снимая с каждого файла галку( скрин №1)
* либо, нажав кнопку "Снять метки (Select None)", сняв сразу со всех файлов(скрин №2)
№1

№2

Оставляем только на нужных нам файлах (файле).

3)Нажать О.К
-- -- --Внимание!!! 08.03. 2017. РАЗДАЧА ОБНОВЛЕНА. ФИНАЛ СЕРИАЛА. ОБНОВИТЕ ТОРЕНТ ФАЙЛ.ПРИЯТНОГО ПРОСМОТРА . --Релиз от: Nikolai.Baranov & PIRATIYA -- -- -- --
[Profile]  [PM] 
Display posts:    
Reply to topic

Current time is: 03-Jun 14:30

All times are UTC + 2



You cannot post new topics in this forum
You cannot reply to topics in this forum
You cannot edit your posts in this forum
You cannot delete your posts in this forum
You cannot vote in polls in this forum
You cannot attach files in this forum
You cannot download files in this forum