Охота на дьявола / Hunt For The Devil (Серии 1-16 из 16) ( Давид Ткебучава) [2017, Детектив, шпионский фильм , HDTVRip 1080i] [DD5.1]

Reply to topic
 
Author
Message

Враг Нароода ®

Gender: Unknown

Longevity: 5 years 8 months

Posts: 421

Reputation: 1 [+] [-]

Враг Нароода · Post 21-Mar-2017 15:28

[Quote] 

--Охота на дьявола / Hunt For The Devil Серии 1-16 из 16-- --Год выпуска: 2017
Выпущено: Россия ,, Киностудия КИТ, IKa film
Жанр:Детектив, шпионский фильм
Продолжительность: 00:52:00
Серии: 1-16
Количество серий в сезоне: 16
Озвучка : -Русский
Субтитры: НЕТ
--Кинопоиск--Режиссер:
Давид Ткебучава--В ролях: Сергей Безруков, Мария Луговая, Евгений Стычкин, Артём Ткаченко, Илья Любимов, Наталья Швец (II), Дмитрий Поднозов, Петар Зекавица, Евгений Карпов, Иван Макаревич, Олег Гераськин, Иван Добронравов, Артём Крылов, Александр Зуев, Максим Митяшин, Андрей Руденский, Николай Шрайбер, Константин Адаев, Джунсуке Киношита, Диана Енакаева, Вероника Тимофеева, Людмила Харитонова, Полина Максимова, Даниил Кокин, Стасс Классен, Виктория Малекторович, Станислав Лесной
-- В основу истории легло реальное научное открытие российского физика Михаила Филиппова, которое он совершил в начале XX века. Учёный исследовал электромагнитные волны и проводил опыты по передаче энергии взрыва на расстоянии. Это явление получило название «гипотетический луч Филиппова». Сериал покажет, чем могла бы обернуться для человечества Вторая мировая война, если бы разработки Филиппова не были уничтожены.
За секретным оружием охотятся разведчики из Германии, СССР, Японии и Великобритании. Противостоять им будет Макс Ливиус, бывший русский офицер, освоивший в мирное время профессию кинорежиссера. Ему помогут агент НКВД и по совместительству любимая девушка Аня, а также сотрудник британской разведки и преданный друг Фил Килби.
-- --Качество : HDTV 1080i
Формат: MKV
Видео кодек: H264
Видео: 6339Kбит/сек,1920х1080(16.9),в 25.048кадр/сек,AVC (High@L4)(CABAC/2 Ref Frames)
Аудио Кодек:AC3
Аудио #:AC3 , 384 Kbps, 48.0 KHz, 6 ch-Русский--

MediaInfo

Общее
Уникальный идентификатор : 205392573454245327899297374242375585803 (0x9A852BB6BB8D61B4ACE6E4D039B1D00B)
Полное имя : C:\ПИРАТИЯ(PIRATIYA)\HDTV 1080p\Охота на дьявола (Hunt For The Devil )\Hunt_For_The_Devil_2017_S01_Rus_NTV_HD_Russia_H264_DD5.1_N.B_HDTV_1080i\Hunt_For_The_Devil_2017_E01-E02_Rus_NTV_HD_Russia_H264_DD5.1_N.B_HDTV_1080i.mkv
Формат : Matroska
Версия формата : Version 4 / Version 2
Размер файла : 4,60 Гбайт
Продолжительность : 1 ч. 37 м.
Режим общего битрейта : Переменный
Общий поток : 6725 Кбит/сек
Название фильма : Hunt_For_The_Devil_2017_E01-E02_Rus_NTV_HD_Russia_H264_DD5.1_N.B_HDTV_1080i
Дата кодирования : UTC 2017-03-20 07:21:25
Программа кодирования : mkvmerge v9.9.0 ('Pick Up') 64bit
Библиотека кодирования : libebml v1.3.4 + libmatroska v1.4.5
Видео
Идентификатор : 1
Формат : AVC
Формат/Информация : Advanced Video Codec
Профиль формата : High@L4
Параметр CABAC формата : Да
Параметр ReFrames формата : 2 кадра
Параметр GOP формата : M=2, N=15
Идентификатор кодека : V_MPEG4/ISO/AVC
Продолжительность : 1 ч. 37 м.
Вид битрейта : Переменный
Битрейт : 6339 Кбит/сек
Максимальный битрейт : 16,0 Мбит/сек
Ширина : 1920 пикселей
Высота : 1080 пикселей
Соотношение сторон : 16:9
Режим частоты кадров : Переменный
Частота кадров : 25,048 кадров/сек
Частота кадров в оригинале : 29,970 (30000/1001) кадров/сек
Цветовое пространство : YUV
Субдискретизация насыщенности : 4:2:0
Битовая глубина : 8 бит
Тип развёртки : Прогрессивная
Бит/(Пиксели*Кадры) : 0.122
Размер потока : 4,33 Гбайт (94%)
Заголовок : Hunt_For_The_Devil_2017_E01-E02_Rus_NTV_HD_Russia_H264_DD5.1_N.B_HDTV_1080i
Язык : Russian
Default : Нет
Forced : Нет
Аудио
Идентификатор : 2
Формат : AC-3
Формат/Информация : Audio Coding 3
Параметр Endianness формата : Big
Идентификатор кодека : A_AC3
Продолжительность : 1 ч. 37 м.
Вид битрейта : Постоянный
Битрейт : 384 Кбит/сек
Каналы : 6 каналов
Расположение каналов : Front: L C R, Side: L R, LFE
Частота : 48,0 КГц
Частота кадров : 31,250 кадров/сек (1536 spf)
Битовая глубина : 16 бит
Метод сжатия : С потерями
Размер потока : 269 Мбайт (6%)
Заголовок : Original@DD5.1 AC3 ,384 Kbps, 48.0 KHz, 6 ch
Язык : Russian
ServiceKind/String : Complete Main
Default : Нет
Forced : Нет
Меню
00:00:00.000 : en:Глава 01 / en:Глава 01
--

Скриншоты

-- --

Как закачать отдельный файл

1. Открыть торрент
2. Снять галки с тех файлов торрента, которые мы не хотим закачивать. Оставляем только на нужных нам файлах (файле).
3. Нажать О.К.
В клиенте utorrent
Инструкция
1) Открыть торрент

2) Снять галки с тех файлов торрента, которые мы не хотим закачивать:
* либо вручную, снимая с каждого файла галку( скрин №1)
* либо, нажав кнопку "Снять метки (Select None)", сняв сразу со всех файлов(скрин №2)
№1

№2

Оставляем только на нужных нам файлах (файле).

3)Нажать О.К
-- -- --Внимание!!! 24.03. 2017. РАЗДАЧА ОБНОВЛЕНА. ФИНАЛ СЕРИАЛА. ОБНОВИТЕ ТОРЕНТ ФАЙЛ.ПРИЯТНОГО ПРОСМОТРА . --Релиз от: Nikolai.Baranov & PIRATIYA -- -- -- --
[Profile]  [PM] 
Display posts:    
Reply to topic

Current time is: 25-May 18:22

All times are UTC + 2



You cannot post new topics in this forum
You cannot reply to topics in this forum
You cannot edit your posts in this forum
You cannot delete your posts in this forum
You cannot vote in polls in this forum
You cannot attach files in this forum
You cannot download files in this forum