Золотая орда / Golden Horde [2018](Серия 1-16 из 16) (Тимур Алпатов) [ Мелодрама, драма, приключения] [WEB-DL] [1080p] [DD5.1]

Reply to topic
 
Author
Message

Враг Нароода ®

Gender: Unknown

Longevity: 5 years 8 months

Posts: 421

Reputation: 1 [+] [-]

Враг Нароода · Post 23-Mar-2018 21:52

[Quote] 

--Золотая орда / Golden Horde (Серия 1-16 из 16-- --Год выпуска: 2018
Выпущено: Россия , Марс Медиа Энтертейнмент, Амедиа Продакшн, банк АК Барс
Жанр: Мелодрама, драма, приключения
Продолжительность: 01:52:56
Серия:1-16
Количество серий : 16--Озвучка : -Русский-- --Режиссер:
Тимур Алпатов--В ролях: Александр Устюгов, Рамиль Сабитов, Юлия Пересильд, Светлана Колпакова, Сабина Ахмедова, Санжар Мади, Сергей Пускепалис, Артур Иванов, Аружан Джазильбекова, Дина Тасбулатова, Карина Андоленко, Артём Алексеев (II), Евгения Дмитриева, Лариса Домаскина, Сергей Соцердотский, Борис Каморзин, Владимир Верёвочкин, Василий Бочкарёв, Максим Сапрыкин, Алтынай Ногербек, Лена Куо, Раджабали Хусейнов, Турар Мураталиев, Юрий Тарасов, Даулет Абдыгапаров, Али Мухаммад, Эльмира Калимуллина, Феруза Рузиева, Нафиса Хайруллина, Генри Давид, Анна Скиданова, Сергей Гурьев
-- Конец XIII-го века. В столицу Руси прибывает посланник Золотой Орды — Менгу-Темир, красавец и ценитель женской красоты. Он приехал, чтобы угнать в Орду тысячи русских воинов, но готов довольствоваться лишь частью, если Великий князь Ярослав отдаст княгиню Устинью, жену его брата Бориса. Ярослав не готов нарушить законы Веры и Чести, но Борис сам идет на этот шаг, надеясь, что эта жертва обеспечит ему княжеский престол. Устинья с караваном отправляется на чужбину.
Менгу оставляет Ярославу «подарок» от Великого хана — юную Наргиз, которая пробуждает князя к жизни и ставит его перед роковым выбором. На одной чаше весов — любовь и страсть, на другой — престол и жизнь самой Наргиз, которую не принимает ни народ, ни законная жена Ярослава.
-- --Качество : WEB-DL 1080p
Формат: MKV
Видео кодек: H264
Видео: 8751Kбит/сек,1920х1080(16.9),в 29.970кадр/сек,AVC(Baseline@L5.1)(1Ref Frames)
Аудио Кодек:AC3
Аудио #1:AC3 , 384 Kbps, 48.0 KHz, 6 ch-Русский--

MediaInfo

Общее
Уникальный идентификатор : 72548347787169130602220451565818858383 (0x36944DB4EC3CA6BB0B10B303E637CB8F)
Полное имя : C:\Nikolai.Baranov & PIRATIYA\ЗОЛОТАЯ ОРДА\Golden_Horde_2018_Rus_E01-E16_DD5.1_N.B_HDTV_1080p\Golden_Horde_2018_Rus_E01-E02_DD5.1_N.B_HD_1080p.mkv
Формат : Matroska
Версия формата : Version 4 / Version 2
Размер файла : 6,48 Гбайт
Продолжительность : 1 ч. 41 м.
Режим общего битрейта : Переменный
Общий поток : 9137 Кбит/сек
Название фильма : Golden Horde 2018 E01-E02 @ Nikolai.Baranov & PIRATIYA
Дата кодирования : UTC 2018-03-22 11:54:20
Программа кодирования : mkvmerge v21.0.0 ('Tardigrades Will Inherit The Earth') 64-bit
Библиотека кодирования : libebml v1.3.5 + libmatroska v1.4.8
Видео
Идентификатор : 1
Формат : AVC
Формат/Информация : Advanced Video Codec
Профиль формата : Baseline@L5.1
Настройки формата : 1 Ref Frames
Параметр CABAC формата : Нет
Параметр RefFrames формата : 1 кадр
Параметр GOP формата : M=1, N=12
Идентификатор кодека : V_MPEG4/ISO/AVC
Продолжительность : 1 ч. 41 м.
Вид битрейта : Переменный
Битрейт : 8751 Кбит/сек
Максимальный битрейт : 10,5 Мбит/сек
Ширина : 1920 пикселей
Высота : 1080 пикселей
Соотношение сторон : 16:9
Режим частоты кадров : Постоянный
Частота кадров : 29,970 (29970/1000) кадров/сек
Частота кадров в оригинале : 24,000 кадра/сек
Цветовое пространство : YUV
Субдискретизация насыщенности : 4:2:0
Битовая глубина : 8 бит
Тип развёртки : Прогрессивная
Бит/(Пиксели*Кадры) : 0.141
Размер потока : 6,20 Гбайт (96%)
Заголовок : Golden_Horde_2018_Rus_E01-E02_DD5.1_N.B_HD_1080p
Язык : Russian
Default : Да
Forced : Нет
Аудио
Идентификатор : 2
Формат : AC-3
Формат/Информация : Audio Coding 3
Идентификатор кодека : A_AC3
Продолжительность : 1 ч. 41 м.
Вид битрейта : Постоянный
Битрейт : 384 Кбит/сек
Каналы : 6 каналов
Расположение каналов : Front: L C R, Side: L R, LFE
Частота : 48,0 КГц
Частота кадров : 31,250 кадров/сек (1536 SPF)
Битовая глубина : 16 бит
Метод сжатия : С потерями
Размер потока : 279 Мбайт (4%)
Заголовок : Original
Язык : Russian
ServiceKind/String : Complete Main
Default : Да
Forced : Нет
Меню
00:00:00.000 : en:Глава 01 / en:Глава 01
-- -- -- -- --Релиз от: Nikolai.Baranov & PIRATIYA -- -- -- --
[Profile]  [PM] 
Display posts:    
Reply to topic

Current time is: 25-May 19:52

All times are UTC + 2



You cannot post new topics in this forum
You cannot reply to topics in this forum
You cannot edit your posts in this forum
You cannot delete your posts in this forum
You cannot vote in polls in this forum
You cannot attach files in this forum
You cannot download files in this forum