Мотыльки / Серии: 1-4 из 4 (Виталий Воробьёв) [2013, драма, SATRip]

Reply to topic
 
Author
Message

LORN-V ®

Gender: Male

Longevity: 7 years 2 months

Posts: 904

Reputation: 5 [+] [-]

Location: Munchen

LORN-V · Post 16-Jul-2013 19:13

[Quote] 

-Основная информация:-Год выпуска: 2013
Страна: Украина/ FILM.UA
Жанр: драма
Продолжительность: 4 х 00:50:00
Режиссер: Виталий Воробьев
Продюссер: Екатерина Швец, Виктор Мирский
Сценарий: Валерий Мухарьямов-В ролях: Юрий Борисов, Мария Поезжаева, Евгения Лоза, Андрей Казаков, Юрий Назаров, Юлия Рутберг, Артем Ткаченко, Максим Заусалин, Тимур Боканча, Олег Примогенов,-Описание:-История любви двух молодых людей, 17-летней девушки и солдата, на фоне Чернобыльской атомной катастрофы.-Мировой рейтинг IMDB
-Доп. информация:-Качество: SATRip
Формат: AVI
Видео кодек: DivX
Аудио кодек: MP3
Видео: 704x400, 25.000 fps, ~1409 kbps avg, 0.24 bit/pixel
Аудио#1: 48 kHz, MPEG Layer 3, 2 ch, ~128.00 kbps avg

MI

Общее
Полное имя : D:Мотыльки 2013 SATRipМотыльки 01 2013 SATRip.avi
Формат : AVI
Формат/Информация : Audio Video Interleave
Размер файла : 550 Мбайт
Продолжительность : 49 м.
Общий поток : 1546 Кбит/сек
Программа кодирования : VirtualDubMod 1.5.10.2 (build 2540/release)
Библиотека кодирования : VirtualDubMod build 2540/release
Видео
Идентификатор : 0
Формат : MPEG-4 Visual
Профиль формата : Advanced Simple@L5
Параметр BVOP формата : 2
Параметр QPel формата : Нет
Параметр GMC формата : Без точки перехода
Параметр матрицы формата : Default (MPEG)
Идентификатор кодека : XVID
Идентификатор кодека/Подсказка : XviD
Продолжительность : 49 м.
Битрейт : 1409 Кбит/сек
Ширина : 704 пикселя
Высота : 400 пикселей
Соотношение сторон : 16:9
Частота кадров : 25,000 кадров/сек
Цветовое пространство : YUV
Субдискретизация насыщенности : 4:2:0
Битовая глубина : 8 бит
Тип развёртки : Прогрессивная
Метод сжатия : С потерями
Бит/(Пиксели*Кадры) : 0.200
Размер потока : 501 Мбайт (91%)
Библиотека кодирования : XviD 65
Аудио
Идентификатор : 1
Формат : MPEG Audio
Версия формата : Version 1
Профиль формата : Layer 3
Режим : Joint stereo
Расширение режима : MS Stereo
Идентификатор кодека : 55
Идентификатор кодека/Подсказка : MP3
Продолжительность : 49 м.
Вид битрейта : Постоянный
Битрейт : 128 Кбит/сек
Каналы : 2 канала
Частота : 48,0 КГц
Метод сжатия : С потерями
Размер потока : 45,5 Мбайт (8%)
Выравнивание : Соединение по промежуткам
Продолжительность промежутка : 40 мс. (1,00 видеокадр)
Время предзагрузки промежутка : 504 мс.
-

Скриншоты

[Profile]  [PM] 
Display posts:    
Reply to topic

Current time is: 03-Jun 13:38

All times are UTC + 2



You cannot post new topics in this forum
You cannot reply to topics in this forum
You cannot edit your posts in this forum
You cannot delete your posts in this forum
You cannot vote in polls in this forum
You cannot attach files in this forum
You cannot download files in this forum