За час до рассвета / An hour before dawn (Сезон 1 , Серия 1-16 из 16 ) ( Игорь Зайцевв) [2021, триллер, детектив, криминал, история, WEB-DLRip - 1080p]

Reply to topic
 
Author
Message

Враг Нароода ®

Gender: Unknown

Longevity: 7 years 3 months

Posts: 502

Reputation: 1 [+] [-]

Враг Нароода · Post 10-Mar-2021 18:34

[Quote] 

-- -- За час до рассвета / An hour before dawn - (Сезон 1 , Серия 1- 16 из 16 ) -
Полный Комплект
----Год выпуска: 2021
Выпущено: Россия , Art Pictures Vision, Киностудия МИМ по заказу телеканала НТВ
Жанр: Драма, триллер, детектив, криминал, история
Продолжительность 00:47:00
Сезон:1
Серия:1-16
Количество серий в сезоне: 16 --Озвучка #1: - Оригинал - Русский --Релиз Без Рекламы -- --Режиссер: Игорь Зайцев --В ролях: Константин Хабенский, Андрей Бурковский, Артур Смольянинов, Артур Ваха, Максим Белбородов, Алёна Михайлова, Агния Дитковските, Мария Лисовая, Валерия Вегнер, Александра Флоринская, Владимир Зайцев, Иван Агапов, Юлия Акимова, Глеб Бочков, Евгений Мундум, Нина Андронаки, Стас Румянцев, Владимир Чуприков, Артём Быстров, Николай Мачульский -- 1946 год. Капитан Денис Журавлёв возвращается к мирной жизни и устраивается на службу в милицию. Его начальник — майор Шумейко по прозвищу Сатана — человек с тяжёлым характером, но решения поставленных задач добивается любой ценой. Журавлёв появляется в команде как раз вовремя: в городе орудует банда преступника по прозвищу Клещ, и чтобы поймать его, нужен неординарный план, который Журавлёв берётся реализовать. Однако скоро становится очевидно, что война, идущая в мирное время, когда непонятно кто друг, а кто враг, ещё запутаннее, чем война, с которой он только что вернулся. -- --Качество : WEB-DLRip 1080p
Формат: MKV
Видео кодек: H264
Видео: 5412 1Кбит/сек,1920х1080(16.9),в 25.000 кадр/сек,AVC (High@L4.1)(CABAC/2 Ref Frames)--Аудио Кодек:AC3
Аудио #1: Original@DD5.1 ЕAC3 , 320 Kbps, 48.0 KHz, 6 ch6 ch - Оригинал - Русский --

Доп. информация:

Звуковая дорожка сделана путем наложения чистого голоса озвучивателей на центральный канал оригинальной дорожки. Качество идентично звуковой дорожке.
--

Список эпизодов сезона


Серия 1. Птаха
Серия 2. Беглецы
Серия 3. Воскресший
Серия 4. Карась
Серия 5. Гости
Серия 6. Оля
Серия 7. Где Буян?
Серия 8. Мочить без разбора!
Серия 9. Готовьте деньги!
Серия 10. Гнилое дело!
Серия 11. Голуби!
Серия 12. г-н Олсон!
Серия 13. Зверь
Серия 14. Совершенно секретно
Серия 15. Хочешь мира - готовься к войне
Серия 16. У каждого своя правда
--

MediaInfo 1Сезон

Общее
Уникальный идентификатор : 208000835040010147473344437006986903313 (0x9C7B80F04320DB401745550C7097FF11)
Полное имя : F:\Baranov\За час до рассвета - An hour before dawn\2021_ An hour before dawn_S01_H264_DD5.1_N.B_HD_1080_Rus\2021_ An hour before dawn_S01E01-S01E03_H264_DD5.1_N.B_HD_1080_Rus.mkv
Формат : Matroska
Версия формата : Version 4
Размер файла : 5,68 Гбайт
Продолжительность : 2 ч. 21 м.
Режим общего битрейта : Переменный
Общий поток : 5 734 Кбит/сек
Название фильма : 2021 An hour before dawn S01E01-S01E03 @ Nikolai.Baranov & PIRATIYA
Дата кодирования : UTC 2021-03-09 17:18:53
Программа кодирования : mkvmerge v55.0.0 ('Waiting For Space') 64-bit
Библиотека кодирования : libebml v1.4.2 + libmatroska v1.6.4
Видео
Идентификатор : 1
Формат : AVC
Формат/Информация : Advanced Video Codec
Профиль формата : High@L4
Настройки формата : CABAC / 2 Ref Frames
Параметр CABAC формата : Да
Параметр RefFrames формата : 2 кадра
Параметр GOP формата : M=2, N=15
Идентификатор кодека : V_MPEG4/ISO/AVC
Продолжительность : 2 ч. 21 м.
Вид битрейта : Переменный
Битрейт : 5 412 Кбит/сек
Максимальный битрейт : 16,0 Мбит/сек
Ширина : 1 920 пикселей
Высота : 1 080 пикселей
Соотношение сторон : 16:9
Режим частоты кадров : Переменный
Частота кадров : 25,034 кадров/сек
Частота кадров в оригинале : 29,970 (30000/1001) кадров/сек
Цветовое пространство : YUV
Субдискретизация насыщенности : 4:2:0
Битовая глубина : 8 бит
Тип развёртки : Прогрессивная
Бит/(Пиксели*Кадры) : 0.104
Размер потока : 5,36 Гбайт (94%)
Заголовок : 2021_ An hour before dawn_S01E01-S01E03_H264_DD5.1_N.B_HD_1080_Rus
Язык : Russian
Default : Нет
Forced : Нет
Аудио
Идентификатор : 2
Формат : AC-3
Формат/Информация : Audio Coding 3
Коммерческое название : Dolby Digital
Идентификатор кодека : A_AC3
Продолжительность : 2 ч. 21 м.
Вид битрейта : Постоянный
Битрейт : 320 Кбит/сек
Каналы : 6 каналов
Channel layout : L R C LFE Ls Rs
Частота : 48,0 КГц
Частота кадров : 31,250 кадров/сек (1536 SPF)
Метод сжатия : С потерями
Размер потока : 325 Мбайт (6%)
Заголовок : Original@DD5.1 AC3 , 320 Kbps, 48.0 KHz, 6 ch
Язык : Russian
Service kind : Complete Main
Default : Нет
Forced : Нет
Меню
00:00:00.000 : ru:Глава 01
--

Скриншоты

--
1Сезон
--

Как закачать отдельный файл

1. Открыть торрент
2. Снять галки с тех файлов торрента, которые мы не хотим закачивать. Оставляем только на нужных нам файлах (файле).
3. Нажать О.К.
В клиенте utorrent
Инструкция
1) Открыть торрент

2) Снять галки с тех файлов торрента, которые мы не хотим закачивать:
* либо вручную, снимая с каждого файла галку( скрин №1)
* либо, нажав кнопку "Снять метки (Select None)", сняв сразу со всех файлов(скрин №2)
№1

№2

Оставляем только на нужных нам файлах (файле).

3)Нажать О.К
-- -- ----Внимание!! ! 11 .05. 2021. РАЗДАЧА ОБНОВЛЕНА. ДОБАВЛЕНА-16-СЕРИЯ . ФИНАЛ СЕЗОНА . ОБНОВИТЕ ТОРЕНТ ФАЙЛ. ПРИЯТНОГО ПРОСМОТРА . Поблагодарить:
ЯД: 410017546713876
--Релиз от: Nikolai.Baranov & PIRATIYA -- -- -- --Время раздачи : 24/7---
[Profile]  [PM] 
Display posts:    
Reply to topic

Current time is: 04-Dec 00:44

All times are UTC + 2



You cannot post new topics in this forum
You cannot reply to topics in this forum
You cannot edit your posts in this forum
You cannot delete your posts in this forum
You cannot vote in polls in this forum
You cannot attach files in this forum
You cannot download files in this forum