(Black Metal) Belphegor - Дискография (28 CD) (1993-2011), FLAC (image+.cue), lossless

Reply to topic
 
Author
Message

Rogvald ®

Gender: Male

Longevity: 11 years

Posts: 836

Reputation: 1006 [+] [-]

Rogvald · Post 24-May-2014 22:11

[Quote] 

- -Жанр: Black Metal || Страна-производитель диска: Austria, Germany, United States of America
Страна: Austria || Год издания: 1993 - 2011
Аудио кодек: FLAC (*.flac) || Тип рипа: image+.cue || Битрейт аудио: lossless
Продолжительность: очень долго || Наличие сканов в содержимом раздачи: да
Источник (релизер): диски из личной коллекции metallihead,
Дискография (28 CD)-

1993 - Bloodbath In Paradise (Austria 1st Press, Belphegor CD1)

Трэклист:
1. Bloodbath In Paradise 6:34
2. Graves Of Sorrow 5:45
3. Schizoid Nightmare 5:11
4. Mutilated Corpses 4:55
Продолжительность: 22:24

Лог создания рипа

Exact Audio Copy V0.99 prebeta 5 from 4. May 2009
EAC extraction logfile from 25. April 2012, 14:42
Belphegor / Bloodbath In Paradise (Austria Belphegor CD1)
Used drive : PLEXTOR DVDR PX-760A Adapter: 0 ID: 0
Read mode : Secure
Utilize accurate stream : Yes
Defeat audio cache : Yes
Make use of C2 pointers : No
Read offset correction : 30
Overread into Lead-In and Lead-Out : No
Fill up missing offset samples with silence : Yes
Delete leading and trailing silent blocks : No
Null samples used in CRC calculations : Yes
Used interface : Native Win32 interface for Win NT & 2000
Used output format : User Defined Encoder
Selected bitrate : 1024 kBit/s
Quality : High
Add ID3 tag : No
Command line compressor : C:\Program Files (x86)\Exact Audio Copy\Flac\flac.exe
Additional command line options : -8 -V %s
TOC of the extracted CD
Track | Start | Length | Start sector | End sector
---------------------------------------------------------
1 | 0:00.00 | 6:33.50 | 0 | 29524
2 | 6:33.50 | 5:45.00 | 29525 | 55399
3 | 12:18.50 | 5:11.00 | 55400 | 78724
4 | 17:29.50 | 4:54.50 | 78725 | 100824
Range status and errors
Selected range
Filename D:\bki71\Belphegor\Belphegor - Bloodbath In Paradise (Austria Belphegor CD1).wav
Peak level 100.0 %
Range quality 100.0 %
Test CRC 3BE5F785
Copy CRC 3BE5F785
Copy OK
No errors occurred
AccurateRip summary
Track 1 not present in database
Track 2 not present in database
Track 3 not present in database
Track 4 not present in database
None of the tracks are present in the AccurateRip database
End of status report

1994 - The Last Supper (Austria Limited Edition 1st Press, Lethal Records LRC 18)

Трэклист:
1. The Last Supper 3:58
2. A Funeral Without A Cry 4:53
3. Impalement Without Mercy 3:44
4. March Of The Dead 4:57
5. The Rapture Of Cremation 3:55
6. Engulfed In Eternal Frost 3:39
7. D.I.E. 3:34
8. In Remembrance Of Hate And Sorrow 4:59
9. Bloodbath In Paradise - Part II 3:01
10. Kruzifixion 4:09
Продолжительность: 40:49

Лог создания рипа

Exact Audio Copy V0.99 prebeta 5 from 4. May 2009
EAC extraction logfile from 26. October 2011, 10:13
Belphegor / The Last Supper (Lethal Records LRC 18)
Used drive : PLEXTOR DVDR PX-760A Adapter: 0 ID: 0
Read mode : Secure
Utilize accurate stream : Yes
Defeat audio cache : Yes
Make use of C2 pointers : No
Read offset correction : 30
Overread into Lead-In and Lead-Out : No
Fill up missing offset samples with silence : Yes
Delete leading and trailing silent blocks : No
Null samples used in CRC calculations : Yes
Used interface : Native Win32 interface for Win NT & 2000
Used output format : User Defined Encoder
Selected bitrate : 1024 kBit/s
Quality : High
Add ID3 tag : No
Command line compressor : C:\Program Files (x86)\Exact Audio Copy\Flac\flac.exe
Additional command line options : -8 -V %s
TOC of the extracted CD
Track | Start | Length | Start sector | End sector
---------------------------------------------------------
1 | 0:00.00 | 3:57.62 | 0 | 17836
2 | 3:57.62 | 4:53.00 | 17837 | 39811
3 | 8:50.62 | 3:44.00 | 39812 | 56611
4 | 12:34.62 | 4:57.00 | 56612 | 78886
5 | 17:31.62 | 3:55.00 | 78887 | 96511
6 | 21:26.62 | 3:39.00 | 96512 | 112936
7 | 25:05.62 | 3:34.00 | 112937 | 128986
8 | 28:39.62 | 4:59.00 | 128987 | 151411
9 | 33:38.62 | 3:01.00 | 151412 | 164986
10 | 36:39.62 | 4:09.05 | 164987 | 183666
Range status and errors
Selected range
Filename D:\bki71\Belphegor\Belphegor - The Last Supper (Lethal Records LRC 18).wav
Peak level 100.0 %
Range quality 100.0 %
Test CRC 75852A6D
Copy CRC 75852A6D
Copy OK
No errors occurred
AccurateRip summary
Track 1 cannot be verified as accurate (confidence 1) [A7DEC125], AccurateRip returned [0C600395]
Track 2 cannot be verified as accurate (confidence 1) [CAE57697], AccurateRip returned [9EC16BD7]
Track 3 cannot be verified as accurate (confidence 1) [EED83DCB], AccurateRip returned [394D294B]
Track 4 cannot be verified as accurate (confidence 1) [AA5489F4], AccurateRip returned [03285414]
Track 5 cannot be verified as accurate (confidence 1) [6355FF0F], AccurateRip returned [FD5B69CF]
Track 6 cannot be verified as accurate (confidence 1) [3DEB2373], AccurateRip returned [016CDB33]
Track 7 cannot be verified as accurate (confidence 1) [15AC2D56], AccurateRip returned [D9AE7616]
Track 8 cannot be verified as accurate (confidence 1) [576EA131], AccurateRip returned [E20E18B1]
Track 9 cannot be verified as accurate (confidence 1) [C8A45766], AccurateRip returned [A5BFA406]
Track 10 cannot be verified as accurate (confidence 1) [0DD34A5A], AccurateRip returned [18ED4939]
No tracks could be verified as accurateYou may have a different pressing from the one(s) in the database
End of status report

1994 - The Last Supper (Austria 2nd Press, Lethal Records LRC 18)

Трэклист:
1. The Last Supper 3:58
2. A Funeral Without A Cry 4:53
3. Impalement Without Mercy 3:44
4. March Of The Dead 4:57
5. The Rapture Of Cremation 3:55
6. Engulfed In Eternal Frost 3:39
7. D.I.E. 3:34
8. In Remembrance Of Hate And Sorrow 4:59
9. Bloodbath In Paradise - Part II 3:01
10. Kruzifixion 4:09
Продолжительность: 40:49

Лог создания рипа

Exact Audio Copy V0.99 prebeta 5 from 4. May 2009
EAC extraction logfile from 15. February 2012, 10:22
Belphegor / The Last Supper (Lethal Records LRC 18)
Used drive : PLEXTOR DVDR PX-760A Adapter: 0 ID: 0
Read mode : Secure
Utilize accurate stream : Yes
Defeat audio cache : Yes
Make use of C2 pointers : No
Read offset correction : 30
Overread into Lead-In and Lead-Out : No
Fill up missing offset samples with silence : Yes
Delete leading and trailing silent blocks : No
Null samples used in CRC calculations : Yes
Used interface : Native Win32 interface for Win NT & 2000
Used output format : User Defined Encoder
Selected bitrate : 1024 kBit/s
Quality : High
Add ID3 tag : No
Command line compressor : C:\Program Files (x86)\Exact Audio Copy\Flac\flac.exe
Additional command line options : -8 -V %s
TOC of the extracted CD
Track | Start | Length | Start sector | End sector
---------------------------------------------------------
1 | 0:00.00 | 3:57.62 | 0 | 17836
2 | 3:57.62 | 4:53.00 | 17837 | 39811
3 | 8:50.62 | 3:44.00 | 39812 | 56611
4 | 12:34.62 | 4:57.00 | 56612 | 78886
5 | 17:31.62 | 3:55.00 | 78887 | 96511
6 | 21:26.62 | 3:39.00 | 96512 | 112936
7 | 25:05.62 | 3:34.00 | 112937 | 128986
8 | 28:39.62 | 4:59.00 | 128987 | 151411
9 | 33:38.62 | 3:01.00 | 151412 | 164986
10 | 36:39.62 | 4:09.05 | 164987 | 183666
Range status and errors
Selected range
Filename D:\bki71\Belphegor\Belphegor - The Last Supper (Lethal Records LRC 18).wav
Peak level 100.0 %
Range quality 100.0 %
Test CRC 6F343F45
Copy CRC 6F343F45
Copy OK
No errors occurred
AccurateRip summary
Track 1 accurately ripped (confidence 1) [0C600395]
Track 2 accurately ripped (confidence 1) [9EC16BD7]
Track 3 accurately ripped (confidence 1) [394D294B]
Track 4 accurately ripped (confidence 1) [03285414]
Track 5 accurately ripped (confidence 1) [FD5B69CF]
Track 6 accurately ripped (confidence 1) [016CDB33]
Track 7 accurately ripped (confidence 1) [D9AE7616]
Track 8 accurately ripped (confidence 1) [E20E18B1]
Track 9 accurately ripped (confidence 1) [A5BFA406]
Track 10 accurately ripped (confidence 1) [18ED4939]
All tracks accurately ripped
End of status report

1994 - The Last Supper (1999 Germany Reissue, Last Episode 0.0739.72. LEP/LEP 025)

Трэклист:
1. The Last Supper 3:54
2. A Funeral Without A Cry 4:49
3. Impalement Without Mercy 3:41
4. March Of The Dead 4:53
5. The Rapture Of Cremation 3:51
6. Engulfed In Eternal Frost 3:35
7. Drowned In Excrement 3:30
8. In Rememberance Of Hate And Sorrow 4:56
9. Bloodbath In Paradise (Part Two) 2:58
10. Krucifixion 4:10
11. Obscure And Deep 4:29
12. Bloodstained Ritual 2:59
13. Sabbath Bloody Sabbath 2:54
14. Purity Through Fire 2:54
15. Diabolical Possession 5:10
16. Outbreak Of Evil 2:46
Продолжительность: 61:31

Лог создания рипа

Exact Audio Copy V0.99 prebeta 5 from 4. May 2009
EAC extraction logfile from 3. November 2011, 9:32
Belphegor / The Last Supper
Used drive : PIONEER DVD-RW DVR-215 Adapter: 5 ID: 0
Read mode : Secure
Utilize accurate stream : Yes
Defeat audio cache : Yes
Make use of C2 pointers : No
Read offset correction : 48
Overread into Lead-In and Lead-Out : No
Fill up missing offset samples with silence : Yes
Delete leading and trailing silent blocks : No
Null samples used in CRC calculations : Yes
Used interface : Native Win32 interface for Win NT & 2000
Used output format : User Defined Encoder
Selected bitrate : 1024 kBit/s
Quality : High
Add ID3 tag : No
Command line compressor : C:\Program Files (x86)\Exact Audio Copy\Flac\flac.exe
Additional command line options : -8 -V %s
TOC of the extracted CD
Track | Start | Length | Start sector | End sector
---------------------------------------------------------
1 | 0:00.00 | 3:54.35 | 0 | 17584
2 | 3:54.35 | 4:49.28 | 17585 | 39287
3 | 8:43.63 | 3:41.04 | 39288 | 55866
4 | 12:24.67 | 4:53.09 | 55867 | 77850
5 | 17:18.01 | 3:51.35 | 77851 | 95210
6 | 21:09.36 | 3:35.08 | 95211 | 111343
7 | 24:44.44 | 3:30.21 | 111344 | 127114
8 | 28:14.65 | 4:55.55 | 127115 | 149294
9 | 33:10.45 | 2:58.24 | 149295 | 162668
10 | 36:08.69 | 4:09.73 | 162669 | 181416
11 | 40:18.67 | 4:29.31 | 181417 | 201622
12 | 44:48.23 | 2:59.33 | 201623 | 215080
13 | 47:47.56 | 2:54.26 | 215081 | 228156
14 | 50:42.07 | 2:53.40 | 228157 | 241171
15 | 53:35.47 | 5:09.44 | 241172 | 264390
16 | 58:45.16 | 2:46.20 | 264391 | 276860
Range status and errors
Selected range
Filename D:\bki71\Belphegor\Belphegor - The Last Supper.wav
Peak level 100.0 %
Range quality 100.0 %
Test CRC D12ED79F
Copy CRC D12ED79F
Copy OK
No errors occurred
AccurateRip summary
Track 1 cannot be verified as accurate (confidence 2) [514AFA5E], AccurateRip returned [35FC8849]
Track 2 cannot be verified as accurate (confidence 2) [7DAE89C4], AccurateRip returned [1160B249]
Track 3 cannot be verified as accurate (confidence 2) [4D2FD8CD], AccurateRip returned [FBD86C25]
Track 4 cannot be verified as accurate (confidence 2) [A783E34B], AccurateRip returned [7AD04F3D]
Track 5 cannot be verified as accurate (confidence 2) [4DCB21B7], AccurateRip returned [A76878C0]
Track 6 cannot be verified as accurate (confidence 2) [FAB3AB65], AccurateRip returned [AA4676E3]
Track 7 cannot be verified as accurate (confidence 2) [D20FB281], AccurateRip returned [A4D7BE56]
Track 8 cannot be verified as accurate (confidence 2) [9D43DDA8], AccurateRip returned [3797A4E1]
Track 9 cannot be verified as accurate (confidence 2) [F74F83BC], AccurateRip returned [9B29EDE8]
Track 10 cannot be verified as accurate (confidence 2) [1963EA63], AccurateRip returned [E2166554]
Track 11 cannot be verified as accurate (confidence 2) [731D126A], AccurateRip returned [E5693766]
Track 12 cannot be verified as accurate (confidence 2) [D407EAB1], AccurateRip returned [CA165471]
Track 13 cannot be verified as accurate (confidence 2) [63E3F478], AccurateRip returned [92154096]
Track 14 cannot be verified as accurate (confidence 2) [F78CB970], AccurateRip returned [3E679736]
Track 15 cannot be verified as accurate (confidence 2) [AEDD6753], AccurateRip returned [1A3FD4C5]
Track 16 cannot be verified as accurate (confidence 2) [CFFAA9BC], AccurateRip returned [C2F08E81]
No tracks could be verified as accurateYou may have a different pressing from the one(s) in the database
End of status report

1994 - The Last Supper (2001 USA Reissue Promo CD, Mercenary Music/World War III Records WW3 CD: 71259

Трэклист:
1. The Last Supper 3:54
2. A Funeral Without A Cry 4:49
3. Impalement Without Mercy 3:41
4. March Of The Dead 4:53
5. The Rapture Of Cremation 3:51
6. Engulfed In Eternal Frost 3:35
7. Drowned In Excrement 3:30
8. In Rememberance Of Hate And Sorrow 4:56
9. Bloodbath In Paradise (Part Two) 2:58
10. Krucifixion 4:09
11. Obscure And Deep 4:28
12. Bloodstained Ritual 2:59
13. Sabbath Bloody Sabbath 2:52
14. Purity Through Fire 2:52
15. Diabolical Possession 5:08
16. Outbreak Of Evil 2:48
Продолжительность: 61:26

Лог создания рипа

Exact Audio Copy V0.99 prebeta 5 from 4. May 2009
EAC extraction logfile from 27. October 2011, 11:48
Belphegor / The Last Supper (USA Reissue Promo CD, 2001)
Used drive : PIONEER DVD-RW DVR-215 Adapter: 5 ID: 0
Read mode : Secure
Utilize accurate stream : Yes
Defeat audio cache : Yes
Make use of C2 pointers : No
Read offset correction : 48
Overread into Lead-In and Lead-Out : No
Fill up missing offset samples with silence : Yes
Delete leading and trailing silent blocks : No
Null samples used in CRC calculations : Yes
Used interface : Native Win32 interface for Win NT & 2000
Used output format : User Defined Encoder
Selected bitrate : 1024 kBit/s
Quality : High
Add ID3 tag : No
Command line compressor : C:\Program Files (x86)\Exact Audio Copy\Flac\flac.exe
Additional command line options : -8 -V %s
TOC of the extracted CD
Track | Start | Length | Start sector | End sector
---------------------------------------------------------
1 | 0:00.00 | 3:54.06 | 0 | 17555
2 | 3:54.06 | 4:49.28 | 17556 | 39258
3 | 8:43.34 | 3:41.04 | 39259 | 55837
4 | 12:24.38 | 4:53.09 | 55838 | 77821
5 | 17:17.47 | 3:51.35 | 77822 | 95181
6 | 21:09.07 | 3:35.08 | 95182 | 111314
7 | 24:44.15 | 3:30.21 | 111315 | 127085
8 | 28:14.36 | 4:55.55 | 127086 | 149265
9 | 33:10.16 | 2:58.24 | 149266 | 162639
10 | 36:08.40 | 4:08.71 | 162640 | 181310
11 | 40:17.36 | 4:28.20 | 181311 | 201430
12 | 44:45.56 | 2:58.55 | 201431 | 214835
13 | 47:44.36 | 2:52.37 | 214836 | 227772
14 | 50:36.73 | 2:52.32 | 227773 | 240704
15 | 53:29.30 | 5:08.18 | 240705 | 263822
16 | 58:37.48 | 2:48.18 | 263823 | 276440
Range status and errors
Selected range
Filename D:\bki71\Belphegor\Belphegor - The Last Supper (USA Reissue Promo CD, 2001).wav
Peak level 100.0 %
Range quality 100.0 %
Test CRC B510B4C7
Copy CRC B510B4C7
Copy OK
No errors occurred
AccurateRip summary
Track 1 accurately ripped (confidence 1) [E0AFBE52]
Track 2 accurately ripped (confidence 1) [21FB7D32]
Track 3 accurately ripped (confidence 1) [C6AC0D57]
Track 4 accurately ripped (confidence 1) [A693EBD6]
Track 5 accurately ripped (confidence 1) [D99116B1]
Track 6 accurately ripped (confidence 1) [A1A4CE44]
Track 7 accurately ripped (confidence 1) [A09D2A1C]
Track 8 accurately ripped (confidence 1) [D8F3F82E]
Track 9 accurately ripped (confidence 1) [DBC14077]
Track 10 accurately ripped (confidence 1) [A3092682]
Track 11 accurately ripped (confidence 1) [5AFA00A9]
Track 12 accurately ripped (confidence 1) [B717842B]
Track 13 accurately ripped (confidence 1) [4C0C1F4A]
Track 14 accurately ripped (confidence 1) [56A0B2D1]
Track 15 accurately ripped (confidence 1) [96C98C7D]
Track 16 accurately ripped (confidence 1) [DF590776]
All tracks accurately ripped
End of status report

1997 - Blutsabbath (Germany 1st Press, LEP 010 INT CD 974.673)

Трэклист:
1. Abschworung 3:40
2. Blackest Ecstasy 4:07
3. Purity Through Fire 3:07
4. Behind The Black Moon 3:04
5. Blutsabbath 5:58
6. No Resurrection 3:48
7. The Requiem Of Hell 4:15
8. Untergang Der Gekreuzigten 3:03
9. Path Of Sin 4:56
Продолжительность: 35:57

Лог создания рипа

Exact Audio Copy V0.99 prebeta 5 from 4. May 2009
EAC extraction logfile from 10. April 2012, 2:42
Belphegor / Blutsabbath (LEP 010 / INT CD 974.673)
Used drive : PLEXTOR DVDR PX-760A Adapter: 0 ID: 0
Read mode : Secure
Utilize accurate stream : Yes
Defeat audio cache : Yes
Make use of C2 pointers : No
Read offset correction : 30
Overread into Lead-In and Lead-Out : No
Fill up missing offset samples with silence : Yes
Delete leading and trailing silent blocks : No
Null samples used in CRC calculations : Yes
Used interface : Native Win32 interface for Win NT & 2000
Used output format : User Defined Encoder
Selected bitrate : 1024 kBit/s
Quality : High
Add ID3 tag : No
Command line compressor : C:\Program Files (x86)\Exact Audio Copy\Flac\flac.exe
Additional command line options : -8 -V %s
TOC of the extracted CD
Track | Start | Length | Start sector | End sector
---------------------------------------------------------
1 | 0:00.00 | 3:40.16 | 0 | 16515
2 | 3:40.16 | 4:06.61 | 16516 | 35026
3 | 7:47.02 | 3:07.13 | 35027 | 49064
4 | 10:54.15 | 3:03.38 | 49065 | 62827
5 | 13:57.53 | 5:57.57 | 62828 | 89659
6 | 19:55.35 | 3:47.43 | 89660 | 106727
7 | 23:43.03 | 4:14.59 | 106728 | 125836
8 | 27:57.62 | 3:03.08 | 125837 | 139569
9 | 31:00.70 | 4:56.05 | 139570 | 161774
Range status and errors
Selected range
Filename D:\bki71\Belphegor\Belphegor - Blutsabbath (LEP 010 INT CD 974.673).wav
Peak level 99.9 %
Range quality 100.0 %
Test CRC 00C74079
Copy CRC 00C74079
Copy OK
No errors occurred
AccurateRip summary
Track 1 not present in database
Track 2 not present in database
Track 3 not present in database
Track 4 not present in database
Track 5 not present in database
Track 6 not present in database
Track 7 not present in database
Track 8 not present in database
Track 9 not present in database
None of the tracks are present in the AccurateRip database
End of status report

1997 - Blutsabbath (Germany 2nd Press, LEP 010 CD 5.7327.20.561)

Трэклист:
1. Abschworung 3:40
2. Blackest Ecstasy 4:07
3. Purity Through Fire 3:07
4. Behind The Black Moon 3:04
5. Blutsabbath 5:58
6. No Resurrection 3:48
7. The Requiem Of Hell 4:15
8. Untergang Der Gekreuzigten 3:03
9. Path Of Sin 4:56
Продолжительность: 35:57

Лог создания рипа

Exact Audio Copy V0.99 prebeta 5 from 4. May 2009
EAC extraction logfile from 14. February 2012, 10:19
Belphegor / Blutsabbath (LEP 010/CD 5.7327.20.561)
Used drive : PIONEER DVD-RW DVR-215 Adapter: 5 ID: 0
Read mode : Secure
Utilize accurate stream : Yes
Defeat audio cache : Yes
Make use of C2 pointers : No
Read offset correction : 48
Overread into Lead-In and Lead-Out : No
Fill up missing offset samples with silence : Yes
Delete leading and trailing silent blocks : No
Null samples used in CRC calculations : Yes
Used interface : Native Win32 interface for Win NT & 2000
Used output format : User Defined Encoder
Selected bitrate : 1024 kBit/s
Quality : High
Add ID3 tag : No
Command line compressor : C:\Program Files (x86)\Exact Audio Copy\Flac\flac.exe
Additional command line options : -8 -V %s
TOC of the extracted CD
Track | Start | Length | Start sector | End sector
---------------------------------------------------------
1 | 0:00.00 | 3:40.16 | 0 | 16515
2 | 3:40.16 | 4:06.61 | 16516 | 35026
3 | 7:47.02 | 3:07.13 | 35027 | 49064
4 | 10:54.15 | 3:03.38 | 49065 | 62827
5 | 13:57.53 | 5:57.57 | 62828 | 89659
6 | 19:55.35 | 3:47.43 | 89660 | 106727
7 | 23:43.03 | 4:14.59 | 106728 | 125836
8 | 27:57.62 | 3:03.08 | 125837 | 139569
9 | 31:00.70 | 4:56.05 | 139570 | 161774
Range status and errors
Selected range
Filename D:\bki71\Belphegor\Belphegor - Blutsabbath (LEP 010 CD 5.7327.20.561).wav
Peak level 99.9 %
Range quality 100.0 %
Test CRC 8CCFD743
Copy CRC 8CCFD743
Copy OK
No errors occurred
AccurateRip summary
Track 1 not present in database
Track 2 not present in database
Track 3 not present in database
Track 4 not present in database
Track 5 not present in database
Track 6 not present in database
Track 7 not present in database
Track 8 not present in database
Track 9 not present in database
None of the tracks are present in the AccurateRip database
End of status report

1997 - Blutsabbath (2001 USA Reissue Promo CD, Mercenary Music/World War III Records WW3 CD: 71260

Трэклист:
1. Abschworung 3:37
2. Blackest Ecstasy 4:04
3. Purity Through Fire 3:04
4. Behind The Black Moon 3:01
5. Blutsabbath 5:55
6. No Resurrection 3:45
7. The Requiem Of Hell 4:12
8. Untergang Der Gekreuzigten 3:00
9. Path Of Sin 4:58
Продолжительность: 35:36

Лог создания рипа

Exact Audio Copy V0.99 prebeta 5 from 4. May 2009
EAC extraction logfile from 27. October 2011, 11:02
Belphegor / Blutsabbath (USA Reissue Promo CD, 2001)
Used drive : PLEXTOR DVDR PX-760A Adapter: 0 ID: 0
Read mode : Secure
Utilize accurate stream : Yes
Defeat audio cache : Yes
Make use of C2 pointers : No
Read offset correction : 30
Overread into Lead-In and Lead-Out : No
Fill up missing offset samples with silence : Yes
Delete leading and trailing silent blocks : No
Null samples used in CRC calculations : Yes
Used interface : Native Win32 interface for Win NT & 2000
Used output format : User Defined Encoder
Selected bitrate : 1024 kBit/s
Quality : High
Add ID3 tag : No
Command line compressor : C:\Program Files (x86)\Exact Audio Copy\Flac\flac.exe
Additional command line options : -8 -V %s
TOC of the extracted CD
Track | Start | Length | Start sector | End sector
---------------------------------------------------------
1 | 0:00.00 | 3:37.19 | 0 | 16293
2 | 3:37.19 | 4:03.64 | 16294 | 34582
3 | 7:41.08 | 3:04.15 | 34583 | 48397
4 | 10:45.23 | 3:00.39 | 48398 | 61936
5 | 13:45.62 | 5:54.59 | 61937 | 88545
6 | 19:40.46 | 3:44.44 | 88546 | 105389
7 | 23:25.15 | 4:11.61 | 105390 | 124275
8 | 27:37.01 | 3:00.11 | 124276 | 137786
9 | 30:37.12 | 4:58.03 | 137787 | 160139
Range status and errors
Selected range
Filename D:\bki71\Belphegor\Belphegor - Blutsabbath (USA Reissue Promo CD, 2001).wav
Peak level 99.9 %
Range quality 100.0 %
Test CRC 23875BB3
Copy CRC 23875BB3
Copy OK
No errors occurred
AccurateRip summary
Track 1 not present in database
Track 2 not present in database
Track 3 not present in database
Track 4 not present in database
Track 5 not present in database
Track 6 not present in database
Track 7 not present in database
Track 8 not present in database
Track 9 not present in database
None of the tracks are present in the AccurateRip database
End of status report

2000 - Necrodaemon Terrorsathan (Germany 1st Press Promo Album, Last Episode LEP 068)

Трэклист:
1. Necrodaemon Terrorsathan 4:48
2. Vomit Upon The Cross 4:11
3. Diabolical Possession 4:49
4. Lust Perishes In A Thirst For Blood 3:53
5. S.B.S.R. 4:00
6. Sadism Unbound 3:34
7. Tanzwut Totengesange 3:18
8. Cremation Of Holiness 3:40
9. Necrodaemon Terrorsathan Pt. II/Outro: Analjesus 3:16
Продолжительность: 35:30

Лог создания рипа

Exact Audio Copy V0.99 prebeta 5 from 4. May 2009
EAC extraction logfile from 27. October 2011, 12:09
Belphegor / Necrodaemon Terrorsathan (Germany Promo CD)
Used drive : PIONEER DVD-RW DVR-215 Adapter: 5 ID: 0
Read mode : Secure
Utilize accurate stream : Yes
Defeat audio cache : Yes
Make use of C2 pointers : No
Read offset correction : 48
Overread into Lead-In and Lead-Out : No
Fill up missing offset samples with silence : Yes
Delete leading and trailing silent blocks : No
Null samples used in CRC calculations : Yes
Used interface : Native Win32 interface for Win NT & 2000
Used output format : User Defined Encoder
Selected bitrate : 1024 kBit/s
Quality : High
Add ID3 tag : No
Command line compressor : C:\Program Files (x86)\Exact Audio Copy\Flac\flac.exe
Additional command line options : -8 -V %s
TOC of the extracted CD
Track | Start | Length | Start sector | End sector
---------------------------------------------------------
1 | 0:00.00 | 4:48.25 | 0 | 21624
2 | 4:48.25 | 4:10.59 | 21625 | 40433
3 | 8:59.09 | 4:49.25 | 40434 | 62133
4 | 13:48.34 | 3:53.01 | 62134 | 79609
5 | 17:41.35 | 4:00.07 | 79610 | 97616
6 | 21:41.42 | 3:33.62 | 97617 | 113653
7 | 25:15.29 | 3:18.28 | 113654 | 128531
8 | 28:33.57 | 3:39.57 | 128532 | 145013
9 | 32:13.39 | 3:16.12 | 145014 | 159725
Range status and errors
Selected range
Filename D:\bki71\Belphegor\Belphegor - Necrodaemon Terrorsathan (Germany Promo CD).wav
Peak level 100.0 %
Range quality 100.0 %
Test CRC E0B50D68
Copy CRC E0B50D68
Copy OK
No errors occurred
AccurateRip summary
Track 1 accurately ripped (confidence 4) [122B5E9B]
Track 2 accurately ripped (confidence 4) [582912AC]
Track 3 accurately ripped (confidence 4) [CC18BDD1]
Track 4 accurately ripped (confidence 4) [54C0E620]
Track 5 accurately ripped (confidence 4) [63AFEE53]
Track 6 accurately ripped (confidence 4) [EA6AE42C]
Track 7 accurately ripped (confidence 4) [D5DB1247]
Track 8 accurately ripped (confidence 4) [31155CED]
Track 9 accurately ripped (confidence 4) [DA4DCC07]
All tracks accurately ripped
End of status report

2000 - Necrodaemon Terrorsathan (Germany 1st Press, Last Episode CD 5.7068.20.561/LEP 068)

Трэклист:
1. Necrodaemon Terrorsathan 4:37
2. Vomit Upon The Cross 4:14
3. Diabolical Possession 4:51
4. Lust Perishes In A Thirst For Blood 3:55
5. S.B.S.R. 4:02
6. Sadism Unbound 3:37
7. Tanzwut Totengesange 3:21
8. Cremation Of Holiness 3:43
9. Necrodaemon Terrorsathan Pt. II/Outro: Analjesus 3:17
Продолжительность: 35:37

Лог создания рипа

Exact Audio Copy V0.99 prebeta 5 from 4. May 2009
EAC extraction logfile from 3. November 2011, 8:52
Belphegor / Necrodaemon Terrorsathan
Used drive : PLEXTOR DVDR PX-760A Adapter: 0 ID: 0
Read mode : Secure
Utilize accurate stream : Yes
Defeat audio cache : Yes
Make use of C2 pointers : No
Read offset correction : 30
Overread into Lead-In and Lead-Out : No
Fill up missing offset samples with silence : Yes
Delete leading and trailing silent blocks : No
Null samples used in CRC calculations : Yes
Used interface : Native Win32 interface for Win NT & 2000
Used output format : User Defined Encoder
Selected bitrate : 1024 kBit/s
Quality : High
Add ID3 tag : No
Command line compressor : C:\Program Files (x86)\Exact Audio Copy\Flac\flac.exe
Additional command line options : -8 -V %s
TOC of the extracted CD
Track | Start | Length | Start sector | End sector
---------------------------------------------------------
1 | 0:00.00 | 4:36.48 | 0 | 20747
2 | 4:36.48 | 4:13.64 | 20748 | 39786
3 | 8:50.37 | 4:51.29 | 39787 | 61640
4 | 13:41.66 | 3:55.05 | 61641 | 79270
5 | 17:36.71 | 4:02.11 | 79271 | 97431
6 | 21:39.07 | 3:36.67 | 97432 | 113698
7 | 25:15.74 | 3:21.33 | 113699 | 128806
8 | 28:37.32 | 3:42.62 | 128807 | 145518
9 | 32:20.19 | 3:17.16 | 145519 | 160309
Range status and errors
Selected range
Filename D:\bki71\Belphegor\Belphegor - Necrodaemon Terrorsathan.wav
Peak level 100.0 %
Range quality 100.0 %
Test CRC 0A22DA87
Copy CRC 0A22DA87
Copy OK
No errors occurred
AccurateRip summary
Track 1 accurately ripped (confidence 4) [37F1767A]
Track 2 accurately ripped (confidence 3) [D70EB851]
Track 3 accurately ripped (confidence 3) [0514694F]
Track 4 accurately ripped (confidence 3) [88693576]
Track 5 accurately ripped (confidence 3) [2F140C94]
Track 6 accurately ripped (confidence 4) [3BE5A5AC]
Track 7 accurately ripped (confidence 3) [D954396C]
Track 8 accurately ripped (confidence 4) [08C57654]
Track 9 accurately ripped (confidence 3) [1326414B]
All tracks accurately ripped
End of status report

2000 - Necrodaemon Terrorsathan (2002 Germany Reissue, Neon Knights NK 003)

Трэклист:
1. Necrodaemon Terrorsathan 4:37
2. Vomit Upon The Cross 4:14
3. Diabolical Possession 4:51
4. Lust Perishes In A Thirst For Blood 3:55
5. S.B.S.R. 4:02
6. Sadism Unbound 3:37
7. Tanzwut Totengesange 3:21
8. Cremation Of Holiness 3:43
9. Necrodaemon Terrorsathan Pt. II/Outro: Analjesus 3:17
Продолжительность: 35:37

Лог создания рипа

Exact Audio Copy V0.99 prebeta 5 from 4. May 2009
EAC extraction logfile from 10. April 2012, 1:57
Belphegor / Necrodaemon Terrorsathan (Germany Reissue, Neon Knights NK 003)
Used drive : PLEXTOR DVDR PX-760A Adapter: 0 ID: 0
Read mode : Secure
Utilize accurate stream : Yes
Defeat audio cache : Yes
Make use of C2 pointers : No
Read offset correction : 30
Overread into Lead-In and Lead-Out : No
Fill up missing offset samples with silence : Yes
Delete leading and trailing silent blocks : No
Null samples used in CRC calculations : Yes
Used interface : Native Win32 interface for Win NT & 2000
Used output format : User Defined Encoder
Selected bitrate : 1024 kBit/s
Quality : High
Add ID3 tag : No
Command line compressor : C:\Program Files (x86)\Exact Audio Copy\Flac\flac.exe
Additional command line options : -8 -V %s
TOC of the extracted CD
Track | Start | Length | Start sector | End sector
---------------------------------------------------------
1 | 0:00.00 | 4:36.48 | 0 | 20747
2 | 4:36.48 | 4:13.64 | 20748 | 39786
3 | 8:50.37 | 4:51.29 | 39787 | 61640
4 | 13:41.66 | 3:55.05 | 61641 | 79270
5 | 17:36.71 | 4:02.11 | 79271 | 97431
6 | 21:39.07 | 3:36.67 | 97432 | 113698
7 | 25:15.74 | 3:21.33 | 113699 | 128806
8 | 28:37.32 | 3:42.62 | 128807 | 145518
9 | 32:20.19 | 3:17.16 | 145519 | 160309
Range status and errors
Selected range
Filename D:\bki71\Belphegor\Belphegor - Necrodaemon Terrorsathan (Germany Reissue, Neon Knights NK 003).wav
Peak level 100.0 %
Range quality 100.0 %
Test CRC 0A22DA87
Copy CRC 0A22DA87
Copy OK
No errors occurred
AccurateRip summary
Track 1 accurately ripped (confidence 5) [37F1767A]
Track 2 accurately ripped (confidence 4) [D70EB851]
Track 3 accurately ripped (confidence 4) [0514694F]
Track 4 accurately ripped (confidence 4) [88693576]
Track 5 accurately ripped (confidence 4) [2F140C94]
Track 6 accurately ripped (confidence 5) [3BE5A5AC]
Track 7 accurately ripped (confidence 4) [D954396C]
Track 8 accurately ripped (confidence 5) [08C57654]
Track 9 accurately ripped (confidence 4) [1326414B]
All tracks accurately ripped
End of status report

2002 - Infernal Live Orgasm (Austria Phallelujah/Napalm Records PHAL 666)

Трэклист:
1. March Of The Dead
2. Purity Through Fire
3. Necrodaemon Terrorsathan
4. The Last Supper
5. No Resurrection
6. Swarm Of Rats
7. Diabolical Possession
8. Blackest Ecstasy
9. Requiem Of Hell
10. Der Untergang (Part II)
11. Graves Of Sorrow
12. Hellbound
Продолжительность: 50:09

Лог создания рипа

Exact Audio Copy V0.99 prebeta 5 from 4. May 2009
EAC extraction logfile from 21. January 2012, 17:12
Belphegor / Infernal Live Orgasm (PHAL 666)
Used drive : PLEXTOR DVDR PX-760A Adapter: 0 ID: 0
Read mode : Secure
Utilize accurate stream : Yes
Defeat audio cache : Yes
Make use of C2 pointers : No
Read offset correction : 30
Overread into Lead-In and Lead-Out : No
Fill up missing offset samples with silence : Yes
Delete leading and trailing silent blocks : No
Null samples used in CRC calculations : Yes
Used interface : Native Win32 interface for Win NT & 2000
Used output format : User Defined Encoder
Selected bitrate : 1024 kBit/s
Quality : High
Add ID3 tag : No
Command line compressor : C:\Program Files (x86)\Exact Audio Copy\Flac\flac.exe
Additional command line options : -8 -V %s
TOC of the extracted CD
Track | Start | Length | Start sector | End sector
---------------------------------------------------------
1 | 0:00.00 | 4:50.23 | 0 | 21772
2 | 4:50.23 | 3:02.55 | 21773 | 35477
3 | 7:53.03 | 4:37.64 | 35478 | 56316
4 | 12:30.67 | 3:41.12 | 56317 | 72903
5 | 16:12.04 | 3:23.13 | 72904 | 88141
6 | 19:35.17 | 4:31.09 | 88142 | 108475
7 | 24:06.26 | 4:59.21 | 108476 | 130921
8 | 29:05.47 | 3:44.49 | 130922 | 147770
9 | 32:50.21 | 4:18.52 | 147771 | 167172
10 | 37:08.73 | 3:07.35 | 167173 | 181232
11 | 40:16.33 | 5:44.43 | 181233 | 207075
12 | 46:01.01 | 4:08.20 | 207076 | 225695
13 | 52:41.21 | 10:06.70 | 237096 | 282615
Range status and errors
Selected range
Filename D:\bki71\Belphegor\Belphegor - Infernal Live Orgasm (PHAL 666).wav
Peak level 100.0 %
Range quality 100.0 %
Test CRC 7ECF468B
Copy CRC 7ECF468B
Copy OK
No errors occurred
AccurateRip summary
Track 1 accurately ripped (confidence 2) [5CCF0F0B]
Track 2 accurately ripped (confidence 2) [1FD9B1E6]
Track 3 accurately ripped (confidence 2) [1AA504E2]
Track 4 accurately ripped (confidence 2) [31FC459D]
Track 5 accurately ripped (confidence 2) [E4E07A02]
Track 6 accurately ripped (confidence 2) [29E076AC]
Track 7 accurately ripped (confidence 2) [12A7A547]
Track 8 accurately ripped (confidence 2) [41F79D73]
Track 9 accurately ripped (confidence 2) [F7641C53]
Track 10 accurately ripped (confidence 2) [A7A0A08E]
Track 11 accurately ripped (confidence 2) [73AB2F5C]
Track 12 accurately ripped (confidence 2) [9191DA88]
All tracks accurately ripped
End of status report

2003 - Lucifer Incestus (Germany Promo CD, Napalm Records Handels GmbH, NPR 132/SPV 085-34112 CD)

Трэклист:
1. Inflamate Christianos 0:31
2. The Goatchrist 4:17
3. Diaboli Virtus In Lumbar Est 3:47
4. Demonic Staccato Erection 4:59
5. Paradise Regained 4:10
6. Fukk The Blood Of Christ 5:45
7. Lucifer Incestus 2:42
8. The Sin - Hellfucked 5:42
9. Fleischrequiem 69 4:16
Продолжительность: 36:11

Лог создания рипа

Exact Audio Copy V0.99 prebeta 5 from 4. May 2009
EAC extraction logfile from 20. January 2012, 9:29
Belphegor / Lucifer Incestus (Promo CD, NPR 132)
Used drive : PLEXTOR DVDR PX-760A Adapter: 0 ID: 0
Read mode : Secure
Utilize accurate stream : Yes
Defeat audio cache : Yes
Make use of C2 pointers : No
Read offset correction : 30
Overread into Lead-In and Lead-Out : No
Fill up missing offset samples with silence : Yes
Delete leading and trailing silent blocks : No
Null samples used in CRC calculations : Yes
Used interface : Native Win32 interface for Win NT & 2000
Used output format : User Defined Encoder
Selected bitrate : 1024 kBit/s
Quality : High
Add ID3 tag : No
Command line compressor : C:\Program Files (x86)\Exact Audio Copy\Flac\flac.exe
Additional command line options : -8 -V %s
TOC of the extracted CD
Track | Start | Length | Start sector | End sector
---------------------------------------------------------
1 | 0:00.00 | 0:30.70 | 0 | 2319
2 | 0:30.70 | 4:17.22 | 2320 | 21616
3 | 4:48.17 | 3:47.20 | 21617 | 38661
4 | 8:35.37 | 4:59.35 | 38662 | 61121
5 | 13:34.72 | 4:10.07 | 61122 | 79878
6 | 17:45.04 | 5:45.12 | 79879 | 105765
7 | 23:30.16 | 2:42.01 | 105766 | 117916
8 | 26:12.17 | 5:42.32 | 117917 | 143598
9 | 31:54.49 | 4:16.36 | 143599 | 162834
Range status and errors
Selected range
Filename D:\bki71\Belphegor\Belphegor - Lucifer Incestus (Promo CD, NPR 132).wav
Peak level 99.5 %
Range quality 100.0 %
Test CRC E2214D35
Copy CRC E2214D35
Copy OK
No errors occurred
AccurateRip summary
Track 1 accurately ripped (confidence 29) [6D2B60F5]
Track 2 accurately ripped (confidence 29) [1F593247]
Track 3 accurately ripped (confidence 29) [FCED1221]
Track 4 accurately ripped (confidence 29) [2FE0B3FB]
Track 5 accurately ripped (confidence 29) [05148E66]
Track 6 accurately ripped (confidence 29) [3F173063]
Track 7 accurately ripped (confidence 29) [3C15D866]
Track 8 accurately ripped (confidence 29) [01E9D962]
Track 9 accurately ripped (confidence 29) [31FF4D79]
All tracks accurately ripped
End of status report

2003 - Lucifer Incestus (Germany Napalm Records Handels GmbH, NPR 132/SPV 085-34112 CD)

Трэклист:
1. Inflamate Christianos 0:31
2. The Goatchrist 4:17
3. Diaboli Virtus In Lumbar Est 3:47
4. Demonic Staccato Erection 4:59
5. Paradise Regained 4:10
6. Fukk The Blood Of Christ 5:45
7. Lucifer Incestus 2:42
8. The Sin - Hellfucked 5:42
9. Fleischrequiem 69 4:16
Продолжительность: 36:11

Лог создания рипа

Exact Audio Copy V0.99 prebeta 5 from 4. May 2009
EAC extraction logfile from 3. November 2011, 13:05
Belphegor / Lucifer Incestus (Napalm Records NPR 132)
Used drive : PLEXTOR DVDR PX-760A Adapter: 0 ID: 0
Read mode : Secure
Utilize accurate stream : Yes
Defeat audio cache : Yes
Make use of C2 pointers : No
Read offset correction : 30
Overread into Lead-In and Lead-Out : No
Fill up missing offset samples with silence : Yes
Delete leading and trailing silent blocks : No
Null samples used in CRC calculations : Yes
Used interface : Native Win32 interface for Win NT & 2000
Used output format : User Defined Encoder
Selected bitrate : 1024 kBit/s
Quality : High
Add ID3 tag : No
Command line compressor : C:\Program Files (x86)\Exact Audio Copy\Flac\flac.exe
Additional command line options : -8 -V %s
TOC of the extracted CD
Track | Start | Length | Start sector | End sector
---------------------------------------------------------
1 | 0:00.00 | 0:30.70 | 0 | 2319
2 | 0:30.70 | 4:17.22 | 2320 | 21616
3 | 4:48.17 | 3:47.20 | 21617 | 38661
4 | 8:35.37 | 4:59.35 | 38662 | 61121
5 | 13:34.72 | 4:10.07 | 61122 | 79878
6 | 17:45.04 | 5:45.12 | 79879 | 105765
7 | 23:30.16 | 2:42.01 | 105766 | 117916
8 | 26:12.17 | 5:42.32 | 117917 | 143598
9 | 31:54.49 | 4:16.36 | 143599 | 162834
Range status and errors
Selected range
Filename D:\bki71\Belphegor\Belphegor - Lucifer Incestus (Napalm Records NPR 132).wav
Peak level 99.5 %
Range quality 100.0 %
Test CRC EDDAF19A
Copy CRC EDDAF19A
Copy OK
No errors occurred
AccurateRip summary
Track 1 accurately ripped (confidence 7) [37061B71]
Track 2 accurately ripped (confidence 7) [07BCD401]
Track 3 accurately ripped (confidence 7) [F50F233C]
Track 4 accurately ripped (confidence 7) [8EA6C87B]
Track 5 accurately ripped (confidence 7) [36BDB751]
Track 6 accurately ripped (confidence 6) [AD0533B6]
Track 7 accurately ripped (confidence 7) [D7CB9F3D]
Track 8 accurately ripped (confidence 7) [1FB827ED]
Track 9 accurately ripped (confidence 7) [9B35CAAD]
All tracks accurately ripped
End of status report

2003 - Bassano Live Orgasm (Bootleg, Black Metal Mafia BMM 001)

Трэклист:
1. Drum Sound-check 5:25
2. Bloodmass 4:22
3. Necrodaemon Terrorsathan 4:39
4. Vomit Upon The Cross 3:39
5. The Goatchrist 4:33
6. The Last Supper 3:35
7. Sabbath Of Fukk 6:03
8. Demonic Staccato Erection 4:09
9. Diabolical Possession 5:44
10. Purith Through Fire 2:55
11. Swarm Of Rats 5:11
Продолжительность: 50:16

Лог создания рипа

Exact Audio Copy V0.99 prebeta 5 from 4. May 2009
EAC extraction logfile from 18. July 2012, 13:32
Belphegor / Bassano Live Orgasm
Used drive : PIONEER DVD-RW DVR-215 Adapter: 5 ID: 0
Read mode : Secure
Utilize accurate stream : Yes
Defeat audio cache : Yes
Make use of C2 pointers : No
Read offset correction : 48
Overread into Lead-In and Lead-Out : No
Fill up missing offset samples with silence : Yes
Delete leading and trailing silent blocks : No
Null samples used in CRC calculations : Yes
Used interface : Native Win32 interface for Win NT & 2000
Used output format : User Defined Encoder
Selected bitrate : 1024 kBit/s
Quality : High
Add ID3 tag : No
Command line compressor : C:\Program Files (x86)\Exact Audio Copy\Flac\flac.exe
Additional command line options : -8 -V %s
TOC of the extracted CD
Track | Start | Length | Start sector | End sector
---------------------------------------------------------
1 | 0:00.00 | 5:24.72 | 0 | 24371
2 | 5:24.72 | 4:21.50 | 24372 | 43996
3 | 9:46.47 | 4:39.20 | 43997 | 64941
4 | 14:25.67 | 3:39.32 | 64942 | 81398
5 | 18:05.24 | 4:33.35 | 81399 | 101908
6 | 22:38.59 | 3:35.00 | 101909 | 118033
7 | 26:13.59 | 6:02.55 | 118034 | 145238
8 | 32:16.39 | 4:09.35 | 145239 | 163948
9 | 36:25.74 | 5:43.72 | 163949 | 189745
10 | 42:09.71 | 2:55.12 | 189746 | 202882
11 | 45:05.08 | 5:11.27 | 202883 | 226234
Range status and errors
Selected range
Filename D:\bki71\Belphegor\Belphegor - Bassano Live Orgasm.wav
Peak level 100.0 %
Range quality 99.9 %
Test CRC 89F069F2
Copy CRC 89F069F2
Copy OK
No errors occurred
AccurateRip summary
Track 1 not present in database
Track 2 not present in database
Track 3 not present in database
Track 4 not present in database
Track 5 not present in database
Track 6 not present in database
Track 7 not present in database
Track 8 not present in database
Track 9 not present in database
Track 10 not present in database
Track 11 not present in database
None of the tracks are present in the AccurateRip database
End of status report

2005 - The Last Supper / Blutsabbath (Austrian Bundle 2CD Set, Twilight 784-432)

CD 1 - The Last Supper
1. The Last Supper 3:55
2. A Funeral Without A Cry 4:50
3. Impalement Without Mecry 3:41
4. March Of The Dead 4:53
5. The Rapture Of Cremation 3:51
6. Engulfed In Eternal Frost 3:36
7. D.I.E. 3:30
8. In Remembrance Of Hate And Sorrow 4:56
9. Bloodbath In Paradise (Part II) 2:58
10. Kruizifixion 4:10
11. Obscure And Deep 4:29
12. Bloodstained Ritual 7:06
CD 2 - Blutsabbath
1. Abschworung 3:40
2. Blackest Ecstasy 4:07
3. Purity Through Fire 3:07
4. Behind The Black Moon 3:04
5. Blutsabbath 5:58
6. No Resurrection 3:48
7. The Requiem Of Hell 4:15
8. U.D.G. 3:04
9. Path Of Sin 4:57
10. Purity Through Fire (Live) 2:57
11. Swarm Of Rats 4:56
(new recorded "pre-production" track from the forthcoming album, March' 05)
Продолжительность: 51:56 + 43:52

Лог создания рипа CD 1

Exact Audio Copy V0.99 prebeta 5 from 4. May 2009
EAC extraction logfile from 25. October 2011, 21:18
Belphegor / The Last Supper (Austrian Bundle 2CD set)
Used drive : PLEXTOR DVDR PX-760A Adapter: 0 ID: 0
Read mode : Secure
Utilize accurate stream : Yes
Defeat audio cache : Yes
Make use of C2 pointers : No
Read offset correction : 30
Overread into Lead-In and Lead-Out : No
Fill up missing offset samples with silence : Yes
Delete leading and trailing silent blocks : No
Null samples used in CRC calculations : Yes
Used interface : Native Win32 interface for Win NT & 2000
Used output format : User Defined Encoder
Selected bitrate : 1024 kBit/s
Quality : High
Add ID3 tag : No
Command line compressor : C:\Program Files (x86)\Exact Audio Copy\Flac\flac.exe
Additional command line options : -8 -V %s
TOC of the extracted CD
Track | Start | Length | Start sector | End sector
---------------------------------------------------------
1 | 0:00.00 | 3:54.65 | 0 | 17614
2 | 3:54.65 | 4:49.59 | 17615 | 39348
3 | 8:44.49 | 3:41.31 | 39349 | 55954
4 | 12:26.05 | 4:52.69 | 55955 | 77923
5 | 17:18.74 | 3:51.23 | 77924 | 95271
6 | 21:10.22 | 3:35.44 | 95272 | 111440
7 | 24:45.66 | 3:30.34 | 111441 | 127224
8 | 28:16.25 | 4:56.06 | 127225 | 149430
9 | 33:12.31 | 2:58.21 | 149431 | 162801
10 | 36:10.52 | 4:10.05 | 162802 | 181556
11 | 40:20.57 | 4:29.10 | 181557 | 201741
12 | 44:49.67 | 7:05.74 | 201742 | 233690
Range status and errors
Selected range
Filename D:\bki71\Belphegor\Belphegor - The Last Supper (Austrian Bundle 2CD set).wav
Peak level 99.5 %
Range quality 100.0 %
Test CRC 565572EA
Copy CRC 565572EA
Copy OK
No errors occurred
AccurateRip summary
Track 1 accurately ripped (confidence 3) [67C74022]
Track 2 accurately ripped (confidence 3) [624599D8]
Track 3 accurately ripped (confidence 3) [3FF5D569]
Track 4 accurately ripped (confidence 3) [5EF45F2D]
Track 5 accurately ripped (confidence 3) [4F83B214]
Track 6 accurately ripped (confidence 3) [346E6777]
Track 7 accurately ripped (confidence 3) [E5A2C128]
Track 8 accurately ripped (confidence 3) [454D08F4]
Track 9 accurately ripped (confidence 3) [E849FA18]
Track 10 accurately ripped (confidence 3) [BA7B0024]
Track 11 accurately ripped (confidence 3) [DD041BF0]
Track 12 accurately ripped (confidence 3) [53ECCB34]
All tracks accurately ripped
End of status report

Лог создания рипа CD 2

Exact Audio Copy V0.99 prebeta 5 from 4. May 2009
EAC extraction logfile from 25. October 2011, 21:38
Belphegor / Blutsabbath (Austrian Bundle 2CD set)
Used drive : PLEXTOR DVDR PX-760A Adapter: 0 ID: 0
Read mode : Secure
Utilize accurate stream : Yes
Defeat audio cache : Yes
Make use of C2 pointers : No
Read offset correction : 30
Overread into Lead-In and Lead-Out : No
Fill up missing offset samples with silence : Yes
Delete leading and trailing silent blocks : No
Null samples used in CRC calculations : Yes
Used interface : Native Win32 interface for Win NT & 2000
Used output format : User Defined Encoder
Selected bitrate : 1024 kBit/s
Quality : High
Add ID3 tag : No
Command line compressor : C:\Program Files (x86)\Exact Audio Copy\Flac\flac.exe
Additional command line options : -8 -V %s
TOC of the extracted CD
Track | Start | Length | Start sector | End sector
---------------------------------------------------------
1 | 0:00.00 | 3:40.04 | 0 | 16503
2 | 3:40.04 | 4:06.72 | 16504 | 35025
3 | 7:47.01 | 3:07.11 | 35026 | 49061
4 | 10:54.12 | 3:03.39 | 49062 | 62825
5 | 13:57.51 | 5:57.57 | 62826 | 89657
6 | 19:55.33 | 3:47.56 | 89658 | 106738
7 | 23:43.14 | 4:14.73 | 106739 | 125861
8 | 27:58.12 | 3:03.38 | 125862 | 139624
9 | 31:01.50 | 4:56.67 | 139625 | 161891
10 | 35:58.42 | 2:56.43 | 161892 | 175134
11 | 38:55.10 | 4:56.37 | 175135 | 197371
Range status and errors
Selected range
Filename D:\bki71\Belphegor\Belphegor - Blutsabbath (Austrian Bundle 2CD set).wav
Peak level 100.0 %
Range quality 99.9 %
Test CRC 168E1655
Copy CRC 168E1655
Copy OK
No errors occurred
AccurateRip summary
Track 1 accurately ripped (confidence 3) [CE367B97]
Track 2 accurately ripped (confidence 3) [BA53566B]
Track 3 accurately ripped (confidence 3) [88CF51DF]
Track 4 accurately ripped (confidence 3) [10627793]
Track 5 accurately ripped (confidence 3) [6A83A3D2]
Track 6 accurately ripped (confidence 3) [437F8040]
Track 7 accurately ripped (confidence 3) [E353BD29]
Track 8 accurately ripped (confidence 3) [B8F2DBB5]
Track 9 accurately ripped (confidence 3) [9C834D09]
Track 10 accurately ripped (confidence 3) [37FC68AF]
Track 11 accurately ripped (confidence 3) [CEEB8284]
All tracks accurately ripped
End of status report

2005 - Goatreich-Fleshcult (Germany Promo CD, Napalm Records Handels GmbH, NPR 162/SPV 085-37092 CD)

Трэклист:
1. The Cruzifixus - Anus Dei 4:16
2. Bleeding Salvation 3:48
3. Fornicationium Et Immundus Diabolus 3:00
4. Sepulture Of Hypocrisy 4:58
5. Goatreich-Fleshcult 3:25
6. Swarm Of Rats 4:54
7. Kings Shall Be Kings 4:59
8. The Crown Massacre 3:01
9. Festum Asinorum/Chapt.2 5:52
Продолжительность: 38:11

Лог создания рипа

Exact Audio Copy V0.99 prebeta 5 from 4. May 2009
EAC extraction logfile from 26. December 2011, 9:56
Belphegor / Goatreich-Fleshcult (Promo CD, NPR 162)
Used drive : PLEXTOR DVDR PX-760A Adapter: 0 ID: 0
Read mode : Secure
Utilize accurate stream : Yes
Defeat audio cache : Yes
Make use of C2 pointers : No
Read offset correction : 30
Overread into Lead-In and Lead-Out : No
Fill up missing offset samples with silence : Yes
Delete leading and trailing silent blocks : No
Null samples used in CRC calculations : Yes
Used interface : Native Win32 interface for Win NT & 2000
Used output format : User Defined Encoder
Selected bitrate : 1024 kBit/s
Quality : High
Add ID3 tag : No
Command line compressor : C:\Program Files (x86)\Exact Audio Copy\Flac\flac.exe
Additional command line options : -8 -V %s
TOC of the extracted CD
Track | Start | Length | Start sector | End sector
---------------------------------------------------------
1 | 0:00.00 | 4:15.45 | 0 | 19169
2 | 4:15.45 | 3:48.13 | 19170 | 36282
3 | 8:03.58 | 2:59.66 | 36283 | 49773
4 | 11:03.49 | 4:57.62 | 49774 | 72110
5 | 16:01.36 | 3:24.46 | 72111 | 87456
6 | 19:26.07 | 4:53.65 | 87457 | 109496
7 | 24:19.72 | 4:59.07 | 109497 | 131928
8 | 29:19.04 | 3:00.39 | 131929 | 145467
9 | 32:19.43 | 5:51.50 | 145468 | 171842
Range status and errors
Selected range
Filename D:\bki71\Belphegor\Belphegor - Goatreich-Fleshcult (Promo CD, NPR 162).wav
Peak level 99.5 %
Range quality 99.9 %
Test CRC FCA1C361
Copy CRC FCA1C361
Copy OK
No errors occurred
AccurateRip summary
Track 1 accurately ripped (confidence 17) [B95C969D]
Track 2 accurately ripped (confidence 17) [96BA5619]
Track 3 accurately ripped (confidence 17) [7D65827C]
Track 4 accurately ripped (confidence 17) [E79866D0]
Track 5 accurately ripped (confidence 17) [278C1BDF]
Track 6 accurately ripped (confidence 17) [960C499E]
Track 7 accurately ripped (confidence 17) [43F6D237]
Track 8 accurately ripped (confidence 17) [16070657]
Track 9 accurately ripped (confidence 17) [BBCB517E]
All tracks accurately ripped
End of status report

2005 - Goatreich - Fleshcult (Germany Napalm Records Handels GmbH, NPR 162/SPV 085-37092 CD)

Трэклист:
1. The Cruzifixus - Anus Dei 4:16
2. Bleeding Salvation 3:48
3. Fornicationium Et Immundus Diabolus 3:00
4. Sepulture Of Hypocrisy 4:58
5. Goatreich-Fleshcult 3:25
6. Swarm Of Rats 4:54
7. Kings Shall Be Kings 4:59
8. The Crown Massacre 3:01
9. Festum Asinorum/Chapt.2 5:52
Продолжительность: 38:11

Лог создания рипа

Exact Audio Copy V0.99 prebeta 5 from 4. May 2009
EAC extraction logfile from 26. October 2011, 9:34
Belphegor / Goatreich-Fleshcult (Napalm Records NPR 162)
Used drive : PLEXTOR DVDR PX-760A Adapter: 0 ID: 0
Read mode : Secure
Utilize accurate stream : Yes
Defeat audio cache : Yes
Make use of C2 pointers : No
Read offset correction : 30
Overread into Lead-In and Lead-Out : No
Fill up missing offset samples with silence : Yes
Delete leading and trailing silent blocks : No
Null samples used in CRC calculations : Yes
Used interface : Native Win32 interface for Win NT & 2000
Used output format : User Defined Encoder
Selected bitrate : 1024 kBit/s
Quality : High
Add ID3 tag : No
Command line compressor : C:\Program Files (x86)\Exact Audio Copy\Flac\flac.exe
Additional command line options : -8 -V %s
TOC of the extracted CD
Track | Start | Length | Start sector | End sector
---------------------------------------------------------
1 | 0:00.00 | 4:15.45 | 0 | 19169
2 | 4:15.45 | 3:48.13 | 19170 | 36282
3 | 8:03.58 | 2:59.66 | 36283 | 49773
4 | 11:03.49 | 4:57.62 | 49774 | 72110
5 | 16:01.36 | 3:24.46 | 72111 | 87456
6 | 19:26.07 | 4:53.65 | 87457 | 109496
7 | 24:19.72 | 4:59.07 | 109497 | 131928
8 | 29:19.04 | 3:00.39 | 131929 | 145467
9 | 32:19.43 | 5:51.50 | 145468 | 171842
Range status and errors
Selected range
Filename D:\bki71\Belphegor\Belphegor - Goatreich-Fleshcult (Napalm Records NPR 162).wav
Peak level 99.5 %
Range quality 99.9 %
Test CRC FCA1C361
Copy CRC FCA1C361
Copy OK
No errors occurred
AccurateRip summary
Track 1 accurately ripped (confidence 17) [B95C969D]
Track 2 accurately ripped (confidence 17) [96BA5619]
Track 3 accurately ripped (confidence 17) [7D65827C]
Track 4 accurately ripped (confidence 17) [E79866D0]
Track 5 accurately ripped (confidence 17) [278C1BDF]
Track 6 accurately ripped (confidence 17) [960C499E]
Track 7 accurately ripped (confidence 17) [43F6D237]
Track 8 accurately ripped (confidence 17) [16070657]
Track 9 accurately ripped (confidence 17) [BBCB517E]
All tracks accurately ripped
End of status report

2005 - Goatreich - Fleshcult (Germany Limited Edition, Napalm Records Handels GmbH, NPR 162/SPV 086-37090 CD)

Трэклист:
1. The Cruzifixus - Anus Dei 4:16
2. Bleeding Salvation 3:48
3. Fornicationium Et Immundus Diabolus 3:00
4. Sepulture Of Hypocrisy 4:58
5. Goatreich-Fleshcult 3:25
6. Swarm Of Rats 4:54
7. Kings Shall Be Kings 4:59
8. The Crown Massacre 3:01
9. Festum Asinorum/Chapt.2 5:53
10. Heresy Of Fire 3:08
Продолжительность: 41:21

Лог создания рипа

Exact Audio Copy V0.99 prebeta 5 from 4. May 2009
EAC extraction logfile from 8. November 2012, 9:49
Belphegor / Goatreich - Fleshcult (Germany Limited Edition, NPR 162)
Used drive : PLEXTOR DVDR PX-760A Adapter: 0 ID: 0
Read mode : Secure
Utilize accurate stream : Yes
Defeat audio cache : Yes
Make use of C2 pointers : No
Read offset correction : 30
Overread into Lead-In and Lead-Out : No
Fill up missing offset samples with silence : Yes
Delete leading and trailing silent blocks : No
Null samples used in CRC calculations : Yes
Used interface : Native Win32 interface for Win NT & 2000
Used output format : User Defined Encoder
Selected bitrate : 1024 kBit/s
Quality : High
Add ID3 tag : No
Command line compressor : C:\Program Files (x86)\Exact Audio Copy\Flac\flac.exe
Additional command line options : -8 -V %s
TOC of the extracted CD
Track | Start | Length | Start sector | End sector
---------------------------------------------------------
1 | 0:00.00 | 4:15.45 | 0 | 19169
2 | 4:15.45 | 3:48.13 | 19170 | 36282
3 | 8:03.58 | 2:59.66 | 36283 | 49773
4 | 11:03.49 | 4:57.62 | 49774 | 72110
5 | 16:01.36 | 3:24.46 | 72111 | 87456
6 | 19:26.07 | 4:53.65 | 87457 | 109496
7 | 24:19.72 | 4:59.07 | 109497 | 131928
8 | 29:19.04 | 3:00.39 | 131929 | 145467
9 | 32:19.43 | 5:53.27 | 145468 | 171969
10 | 38:12.70 | 3:07.68 | 171970 | 186062
Range status and errors
Selected range
Filename D:\bki71\Belphegor\Belphegor - Goatreich - Fleshcult (Germany Limited Edition, NPR 162).wav
Peak level 99.5 %
Range quality 99.9 %
Test CRC DF382599
Copy CRC DF382599
Copy OK
No errors occurred
AccurateRip summary
Track 1 accurately ripped (confidence 8) [3AEF582A]
Track 2 accurately ripped (confidence 8) [FA36D9C6]
Track 3 accurately ripped (confidence 8) [B1F0BC06]
Track 4 accurately ripped (confidence 8) [EF854760]
Track 5 accurately ripped (confidence 8) [01E53378]
Track 6 accurately ripped (confidence 8) [7DE1B6BC]
Track 7 accurately ripped (confidence 8) [0F87A1E9]
Track 8 accurately ripped (confidence 8) [96A6ECEC]
Track 9 accurately ripped (confidence 8) [69B2C124]
Track 10 accurately ripped (confidence 8) [4FA37AD9]
All tracks accurately ripped
End of status report

2006 - Pestapokalypse VI (CDR Promo Album, Nuclear Blast Records)

Трэклист:
1. Belphegor - Hell's Ambassador 4:24
2. Seyn Todt In Schwartz 3:23
3. Angel Of Retribution 5:32
4. Chants For The Devil 4:43
5. Pest Teufel Apokalypse 5:03
6. The Ancient Enemy 3:24
7. Bluhtsturm Erotika 3:48
8. Sanctus Perversum 5:02
9. Das Pesthaus/ Miasmas Epilog 2:47
Продолжительность: 38:06

Лог создания рипа

Exact Audio Copy V0.99 prebeta 5 from 4. May 2009
EAC extraction logfile from 27. October 2011, 12:27
Belphegor / Pestapokalypse VI (Promo CDR)
Used drive : PIONEER DVD-RW DVR-215 Adapter: 5 ID: 0
Read mode : Secure
Utilize accurate stream : Yes
Defeat audio cache : Yes
Make use of C2 pointers : No
Read offset correction : 48
Overread into Lead-In and Lead-Out : No
Fill up missing offset samples with silence : Yes
Delete leading and trailing silent blocks : No
Null samples used in CRC calculations : Yes
Used interface : Native Win32 interface for Win NT & 2000
Used output format : User Defined Encoder
Selected bitrate : 1024 kBit/s
Quality : High
Add ID3 tag : No
Command line compressor : C:\Program Files (x86)\Exact Audio Copy\Flac\flac.exe
Additional command line options : -8 -V %s
TOC of the extracted CD
Track | Start | Length | Start sector | End sector
---------------------------------------------------------
1 | 0:00.00 | 4:24.20 | 0 | 19819
2 | 4:24.20 | 3:22.43 | 19820 | 35012
3 | 7:46.63 | 5:32.07 | 35013 | 59919
4 | 13:18.70 | 4:42.68 | 59920 | 81137
5 | 18:01.63 | 5:03.32 | 81138 | 103894
6 | 23:05.20 | 3:24.04 | 103895 | 119198
7 | 26:29.24 | 3:48.04 | 119199 | 136302
8 | 30:17.28 | 5:02.35 | 136303 | 158987
9 | 35:19.63 | 2:46.48 | 158988 | 171485
Range status and errors
Selected range
Filename D:\bki71\Belphegor\Belphegor - Pestapokalypse VI (Promo CDR).wav
Peak level 100.0 %
Range quality 100.0 %
Test CRC 28A2F25A
Copy CRC 28A2F25A
Copy OK
No errors occurred
AccurateRip summary
Track 1 not present in database
Track 2 not present in database
Track 3 not present in database
Track 4 not present in database
Track 5 not present in database
Track 6 not present in database
Track 7 not present in database
Track 8 not present in database
Track 9 not present in database
None of the tracks are present in the AccurateRip database
End of status report

2006 - Pestapokalypse VI (Germany Promo CD, Nuclear Blast NB 1759-2)

Трэклист:
1. Belphegor - Hell's Ambassador 4:24
2. Seyn Todt In Schwartz 3:23
3. Angel Of Retribution 5:32
4. Chants For The Devil 4:43
5. Pest Teufel Apokalypse 5:03
6. The Ancient Enemy 3:24
7. Bluhtsturm Erotika 3:48
8. Sanctus Perversum 5:02
9. Das Pesthaus/ Miasmas Epilog 2:46
Продолжительность: 38:06

Лог создания рипа

Exact Audio Copy V0.99 prebeta 5 from 4. May 2009
EAC extraction logfile from 28. December 2011, 9:41
Belphegor / Pestapokalypse VI (Promo CD, NB 1759-2)
Used drive : PLEXTOR DVDR PX-760A Adapter: 0 ID: 0
Read mode : Secure
Utilize accurate stream : Yes
Defeat audio cache : Yes
Make use of C2 pointers : No
Read offset correction : 30
Overread into Lead-In and Lead-Out : No
Fill up missing offset samples with silence : Yes
Delete leading and trailing silent blocks : No
Null samples used in CRC calculations : Yes
Used interface : Native Win32 interface for Win NT & 2000
Used output format : User Defined Encoder
Selected bitrate : 1024 kBit/s
Quality : High
Add ID3 tag : No
Command line compressor : C:\Program Files (x86)\Exact Audio Copy\Flac\flac.exe
Additional command line options : -8 -V %s
TOC of the extracted CD
Track | Start | Length | Start sector | End sector
---------------------------------------------------------
1 | 0:00.00 | 4:24.20 | 0 | 19819
2 | 4:24.20 | 3:22.57 | 19820 | 35026
3 | 7:47.02 | 5:31.71 | 35027 | 59922
4 | 13:18.73 | 4:42.55 | 59923 | 81127
5 | 18:01.53 | 5:03.28 | 81128 | 103880
6 | 23:05.06 | 3:23.69 | 103881 | 119174
7 | 26:29.00 | 3:48.25 | 119175 | 136299
8 | 30:17.25 | 5:02.24 | 136300 | 158973
9 | 35:19.49 | 2:46.02 | 158974 | 171425
Range status and errors
Selected range
Filename D:\bki71\Belphegor\Belphegor - Pestapokalypse VI (Promo CD, NB 1759-2).wav
Peak level 100.0 %
Range quality 100.0 %
Test CRC E7CC6286
Copy CRC E7CC6286
Copy OK
No errors occurred
AccurateRip summary
Track 1 accurately ripped (confidence 3) [8C1B980A]
Track 2 accurately ripped (confidence 3) [05B7B7FC]
Track 3 accurately ripped (confidence 3) [F24E11F9]
Track 4 accurately ripped (confidence 3) [F4B46DD8]
Track 5 accurately ripped (confidence 3) [BEC3769D]
Track 6 accurately ripped (confidence 3) [36290080]
Track 7 accurately ripped (confidence 3) [DE8FAF18]
Track 8 accurately ripped (confidence 3) [9000F463]
Track 9 accurately ripped (confidence 3) [7FD8D91B]
All tracks accurately ripped
End of status report

2006 - Pestapokalypse VI (Germany Nuclear Blast GmbH 2736117592)

Трэклист:
1. Belphegor - Hell's Ambassador 4:24
2. Seyn Todt In Schwartz 3:23
3. Angel Of Retribution 5:32
4. Chants For The Devil 4:43
5. Pest Teufel Apokalypse 5:03
6. The Ancient Enemy 3:24
7. Bluhtsturm Erotika 3:48
8. Sanctus Perversum 5:02
9. Das Pesthaus/ Miasmas Epilog 2:47
Продолжительность: 38:06

Лог создания рипа

Exact Audio Copy V0.99 prebeta 5 from 4. May 2009
EAC extraction logfile from 25. October 2011, 10:35
Belphegor / Pestapokalypse VI (Nuclear Blast 2736117592)
Used drive : PLEXTOR DVDR PX-760A Adapter: 0 ID: 0
Read mode : Secure
Utilize accurate stream : Yes
Defeat audio cache : Yes
Make use of C2 pointers : No
Read offset correction : 30
Overread into Lead-In and Lead-Out : No
Fill up missing offset samples with silence : Yes
Delete leading and trailing silent blocks : No
Null samples used in CRC calculations : Yes
Used interface : Native Win32 interface for Win NT & 2000
Used output format : User Defined Encoder
Selected bitrate : 1024 kBit/s
Quality : High
Add ID3 tag : No
Command line compressor : C:\Program Files (x86)\Exact Audio Copy\Flac\flac.exe
Additional command line options : -8 -V %s
TOC of the extracted CD
Track | Start | Length | Start sector | End sector
---------------------------------------------------------
1 | 0:00.00 | 4:24.20 | 0 | 19819
2 | 4:24.20 | 3:22.57 | 19820 | 35026
3 | 7:47.02 | 5:31.71 | 35027 | 59922
4 | 13:18.73 | 4:42.55 | 59923 | 81127
5 | 18:01.53 | 5:03.28 | 81128 | 103880
6 | 23:05.06 | 3:23.69 | 103881 | 119174
7 | 26:29.00 | 3:48.25 | 119175 | 136299
8 | 30:17.25 | 5:02.24 | 136300 | 158973
9 | 35:19.49 | 2:46.02 | 158974 | 171425
Range status and errors
Selected range
Filename D:\bki71\Belphegor\Belphegor - Pestapokalypse VI (Nuclear Blast 2736117592).wav
Peak level 100.0 %
Range quality 100.0 %
Test CRC 42F2CD7C
Copy CRC 42F2CD7C
Copy OK
No errors occurred
AccurateRip summary
Track 1 accurately ripped (confidence 11) [8AB4E9FB]
Track 2 accurately ripped (confidence 11) [44C6EDDB]
Track 3 accurately ripped (confidence 11) [D3F0DE92]
Track 4 accurately ripped (confidence 11) [92B8FFEA]
Track 5 accurately ripped (confidence 11) [7C3839C2]
Track 6 accurately ripped (confidence 11) [AFC1DAD3]
Track 7 accurately ripped (confidence 11) [436D785B]
Track 8 accurately ripped (confidence 11) [BD63622F]
Track 9 accurately ripped (confidence 11) [2218F3C4]
All tracks accurately ripped
End of status report

2008 - Bondage Goat Zombie (USA Promo CD, Nuclear Blast NB 2086-2)

Трэклист:
1. Bondage Goat Zombie 4:01
2. Stigma Diabolicum 5:02
3. Armageddon's Raid 5:09
4. Justine: Soaked In Blood 4:10
5. Sexdictator Lucifer 3:45
6. Shred For Sathan 3:50
7. Chronicles Of Crime 5:34
8. The Sukkubus Lustrate 2:58
9. Der Rutenmarsch 5:33
Продолжительность: 40:01

Лог создания рипа

Exact Audio Copy V0.99 prebeta 5 from 4. May 2009
EAC extraction logfile from 28. December 2011, 14:29
Belphegor / Bondage Goat Zombie (Promo CD, NB 2086-2)
Used drive : PLEXTOR DVDR PX-760A Adapter: 0 ID: 0
Read mode : Secure
Utilize accurate stream : Yes
Defeat audio cache : Yes
Make use of C2 pointers : No
Read offset correction : 30
Overread into Lead-In and Lead-Out : No
Fill up missing offset samples with silence : Yes
Delete leading and trailing silent blocks : No
Null samples used in CRC calculations : Yes
Used interface : Native Win32 interface for Win NT & 2000
Used output format : User Defined Encoder
Selected bitrate : 1024 kBit/s
Quality : High
Add ID3 tag : No
Command line compressor : C:\Program Files (x86)\Exact Audio Copy\Flac\flac.exe
Additional command line options : -8 -V %s
TOC of the extracted CD
Track | Start | Length | Start sector | End sector
---------------------------------------------------------
1 | 0:00.00 | 4:01.17 | 0 | 18091
2 | 4:01.17 | 5:01.63 | 18092 | 40729
3 | 9:03.05 | 5:08.58 | 40730 | 63887
4 | 14:11.63 | 4:09.71 | 63888 | 82633
5 | 18:21.59 | 3:45.37 | 82634 | 99545
6 | 22:07.21 | 3:49.39 | 99546 | 116759
7 | 25:56.60 | 5:33.53 | 116760 | 141787
8 | 31:30.38 | 2:58.11 | 141788 | 155148
9 | 34:28.49 | 5:32.40 | 155149 | 180088
Range status and errors
Selected range
Filename D:\bki71\Belphegor\Belphegor - Bondage Goat Zombie (Promo CD, NB 2086-2).wav
Peak level 99.8 %
Range quality 100.0 %
Test CRC B654A522
Copy CRC B654A522
Copy OK
No errors occurred
AccurateRip summary
Track 1 cannot be verified as accurate (confidence 39) [BC370DCC], AccurateRip returned [78B85706]
Track 2 cannot be verified as accurate (confidence 39) [1BAF2728], AccurateRip returned [B5FD2DA8]
Track 3 cannot be verified as accurate (confidence 39) [64A3447B], AccurateRip returned [34B781E8]
Track 4 cannot be verified as accurate (confidence 39) [CA8B9D09], AccurateRip returned [48B548C6]
Track 5 cannot be verified as accurate (confidence 39) [FFCED8C0], AccurateRip returned [1F861D7F]
Track 6 cannot be verified as accurate (confidence 39) [46B05BB0], AccurateRip returned [2DCA3EE9]
Track 7 cannot be verified as accurate (confidence 39) [D90C3C30], AccurateRip returned [19913DD5]
Track 8 cannot be verified as accurate (confidence 39) [5B384508], AccurateRip returned [3F0DF971]
Track 9 cannot be verified as accurate (confidence 39) [1C5768AE], AccurateRip returned [B9130F34]
No tracks could be verified as accurateYou may have a different pressing from the one(s) in the database
End of status report

2008 - Bondage Goat Zombie (USA CD/DVD Edition, Nuclear Blast GmbH 2086-2)

Трэклист:
1. Bondage Goat Zombie 4:01
2. Stigma Diabolicum 5:02
3. Armageddon's Raid 5:09
4. Justine: Soaked In Blood 4:10
5. Sexdictator Lucifer 3:45
6. Shred For Sathan 3:50
7. Chronicles Of Crime 5:34
8. The Sukkubus Lustrate 2:58
9. Der Rutenmarsch 5:33
Продолжительность: 40:01

Лог создания рипа

Exact Audio Copy V0.99 prebeta 5 from 4. May 2009
EAC extraction logfile from 25. October 2011, 9:07
Belphegor / Bondage Goat Zombie (Nuclear Blast 2086-2)
Used drive : PLEXTOR DVDR PX-760A Adapter: 0 ID: 0
Read mode : Secure
Utilize accurate stream : Yes
Defeat audio cache : Yes
Make use of C2 pointers : No
Read offset correction : 30
Overread into Lead-In and Lead-Out : No
Fill up missing offset samples with silence : Yes
Delete leading and trailing silent blocks : No
Null samples used in CRC calculations : Yes
Used interface : Native Win32 interface for Win NT & 2000
Used output format : User Defined Encoder
Selected bitrate : 1024 kBit/s
Quality : High
Add ID3 tag : No
Command line compressor : C:\Program Files (x86)\Exact Audio Copy\Flac\flac.exe
Additional command line options : -8 -V %s
TOC of the extracted CD
Track | Start | Length | Start sector | End sector
---------------------------------------------------------
1 | 0:00.00 | 4:01.17 | 0 | 18091
2 | 4:01.17 | 5:01.63 | 18092 | 40729
3 | 9:03.05 | 5:08.58 | 40730 | 63887
4 | 14:11.63 | 4:09.71 | 63888 | 82633
5 | 18:21.59 | 3:45.37 | 82634 | 99545
6 | 22:07.21 | 3:49.39 | 99546 | 116759
7 | 25:56.60 | 5:33.53 | 116760 | 141787
8 | 31:30.38 | 2:58.11 | 141788 | 155148
9 | 34:28.49 | 5:32.40 | 155149 | 180088
Range status and errors
Selected range
Filename D:\bki71\Belphegor\Belphegor - Bondage Goat Zombie (Nuclear Blast 2086-2).wav
Peak level 99.8 %
Range quality 100.0 %
Test CRC A9348256
Copy CRC A9348256
Copy OK
No errors occurred
AccurateRip summary
Track 1 accurately ripped (confidence 5) [B9AB5952]
Track 2 accurately ripped (confidence 5) [D51AFCB0]
Track 3 accurately ripped (confidence 4) [2F5D3F24]
Track 4 accurately ripped (confidence 5) [75106091]
Track 5 accurately ripped (confidence 5) [3D311FB1]
Track 6 accurately ripped (confidence 5) [8C2E34D2]
Track 7 accurately ripped (confidence 5) [0B1AAB89]
Track 8 accurately ripped (confidence 5) [30E324D8]
Track 9 accurately ripped (confidence 5) [DD8D3DC4]
All tracks accurately ripped
End of status report

2009 - Walpurgis Rites - Hexenwahn (Thai Promo CD, Nuclear Blast/Platinum Marketing and Distributing Company Ltd NB 2130-2)

Трэклист:
1. Walpurgis Rites 3:09
2. Veneratio Diaboli - I Am Sin 7:02
3. Hail the New Flesh 5:34
4. Reichswehr in Blood 4:37
5. The Crosses Made of Bone 4:26
6. Der Geistertreiber 3:41
7. Destroyer Hekate 3:37
8. Enthralled Toxic Sabbat 4:33
9. Hexenwahn - Totenkult 2:44
Продолжительность: 39:24

Лог создания рипа

Exact Audio Copy V0.99 prebeta 5 from 4. May 2009
EAC extraction logfile from 27. October 2011, 13:06
Belphegor / Walpurgis Rites - Hexenwahn (Thai Promo CD)
Used drive : PIONEER DVD-RW DVR-215 Adapter: 5 ID: 0
Read mode : Secure
Utilize accurate stream : Yes
Defeat audio cache : Yes
Make use of C2 pointers : No
Read offset correction : 48
Overread into Lead-In and Lead-Out : No
Fill up missing offset samples with silence : Yes
Delete leading and trailing silent blocks : No
Null samples used in CRC calculations : Yes
Used interface : Native Win32 interface for Win NT & 2000
Used output format : User Defined Encoder
Selected bitrate : 1024 kBit/s
Quality : High
Add ID3 tag : No
Command line compressor : C:\Program Files (x86)\Exact Audio Copy\Flac\flac.exe
Additional command line options : -8 -V %s
TOC of the extracted CD
Track | Start | Length | Start sector | End sector
---------------------------------------------------------
1 | 0:00.00 | 3:09.24 | 0 | 14198
2 | 3:09.24 | 7:02.09 | 14199 | 45857
3 | 10:11.33 | 5:33.52 | 45858 | 70884
4 | 15:45.10 | 4:36.48 | 70885 | 91632
5 | 20:21.58 | 4:26.04 | 91633 | 111586
6 | 24:47.62 | 3:41.17 | 111587 | 128178
7 | 28:29.04 | 3:37.13 | 128179 | 144466
8 | 32:06.17 | 4:33.11 | 144467 | 164952
9 | 36:39.28 | 2:44.32 | 164953 | 177284
Range status and errors
Selected range
Filename D:\bki71\Belphegor\Belphegor - Walpurgis Rites - Hexenwahn (Thai Promo CD).wav
Peak level 99.8 %
Range quality 100.0 %
Test CRC 0AF79AE0
Copy CRC 0AF79AE0
Copy OK
No errors occurred
AccurateRip summary
Track 1 cannot be verified as accurate (confidence 5) [AD969DA6], AccurateRip returned [3E059B58]
Track 2 cannot be verified as accurate (confidence 5) [3EF0CC3C], AccurateRip returned [256B703C]
Track 3 cannot be verified as accurate (confidence 5) [2446946D], AccurateRip returned [B645948F]
Track 4 cannot be verified as accurate (confidence 5) [9762D554], AccurateRip returned [8D4C75AB]
Track 5 cannot be verified as accurate (confidence 5) [B7E69636], AccurateRip returned [8835CACE]
Track 6 cannot be verified as accurate (confidence 5) [5722DF68], AccurateRip returned [8E425AD1]
Track 7 cannot be verified as accurate (confidence 5) [F233E2D8], AccurateRip returned [60DBB6F7]
Track 8 cannot be verified as accurate (confidence 5) [98B248BE], AccurateRip returned [0D1FE150]
Track 9 cannot be verified as accurate (confidence 5) [9B8E6A8A], AccurateRip returned [668037F0]
No tracks could be verified as accurateYou may have a different pressing from the one(s) in the database
End of status report

2009 - Walpurgis Rites - Hexenwahn (USA Nuclear Blast GmbH 2130-2)

Трэклист:
1. Walpurgis Rites 3:09
2. Veneratio Diaboli - I Am Sin 7:02
3. Hail the New Flesh 5:33
4. Reichswehr in Blood 4:37
5. The Crosses Made of Bone 4:26
6. Der Geistertreiber 3:42
7. Destroyer Hekate 3:37
8. Enthralled Toxic Sabbat 4:33
9. Hexenwahn - Totenkult 2:44
Продолжительность: 39:23

Лог создания рипа

Exact Audio Copy V0.99 prebeta 5 from 4. May 2009
EAC extraction logfile from 25. October 2011, 9:34
Belphegor / Walpurgis Rites - Hexenwahn (Nuclear Blast 2130-2)
Used drive : PLEXTOR DVDR PX-760A Adapter: 0 ID: 0
Read mode : Secure
Utilize accurate stream : Yes
Defeat audio cache : Yes
Make use of C2 pointers : No
Read offset correction : 30
Overread into Lead-In and Lead-Out : No
Fill up missing offset samples with silence : Yes
Delete leading and trailing silent blocks : No
Null samples used in CRC calculations : Yes
Used interface : Native Win32 interface for Win NT & 2000
Used output format : User Defined Encoder
Selected bitrate : 1024 kBit/s
Quality : High
Add ID3 tag : No
Command line compressor : C:\Program Files (x86)\Exact Audio Copy\Flac\flac.exe
Additional command line options : -8 -V %s
TOC of the extracted CD
Track | Start | Length | Start sector | End sector
---------------------------------------------------------
1 | 0:00.00 | 3:08.64 | 0 | 14163
2 | 3:08.64 | 7:02.09 | 14164 | 45822
3 | 10:10.73 | 5:32.52 | 45823 | 70774
4 | 15:43.50 | 4:36.48 | 70775 | 91522
5 | 20:20.23 | 4:26.04 | 91523 | 111476
6 | 24:46.27 | 3:41.59 | 111477 | 128110
7 | 28:28.11 | 3:37.13 | 128111 | 144398
8 | 32:05.24 | 4:33.11 | 144399 | 164884
9 | 36:38.35 | 2:44.32 | 164885 | 177216
Range status and errors
Selected range
Filename D:\bki71\Belphegor\Belphegor - Walpurgis Rites - Hexenwahn (Nuclear Blast 2130-2).wav
Peak level 99.8 %
Range quality 100.0 %
Test CRC 01ABBDDE
Copy CRC 01ABBDDE
Copy OK
No errors occurred
AccurateRip summary
Track 1 accurately ripped (confidence 3) [C3506749]
Track 2 accurately ripped (confidence 3) [E4C1A96F]
Track 3 accurately ripped (confidence 3) [A60C63ED]
Track 4 accurately ripped (confidence 3) [AEEDF65B]
Track 5 accurately ripped (confidence 3) [360C1BC4]
Track 6 accurately ripped (confidence 3) [5793C96B]
Track 7 accurately ripped (confidence 3) [FB85B7C4]
Track 8 accurately ripped (confidence 3) [5B668BC9]
Track 9 accurately ripped (confidence 3) [00FEF912]
All tracks accurately ripped
End of status report

2011 - Blood Magick Necromance (Germany Limited Edition, Nuclear Blast GmbH, NB 2653-2/27361 26532)

Трэклист:
1. In Blood - Devour This Sanctity 5:31
2. Rise to Fall and Fall to Rise 6:01
3. Blood Magick Necromance 7:00
4. Discipline Thorugh Punishment 4:05
5. Angeli Mortis De Profundis 3:00
6. Impaled Upon the Tongue of Sathan 5:42
7. Possessed Burning Eyes 5:34
8. Sado Messiah 3:51
Продолжительность: 40:42

Лог создания рипа

Exact Audio Copy V0.99 prebeta 5 from 4. May 2009
EAC extraction logfile from 25. October 2011, 12:38
Belphegor / Blood Magick Necromance (LE, Nuclear Blast NB 2653-2/27361 26532)
Used drive : PLEXTOR DVDR PX-760A Adapter: 0 ID: 0
Read mode : Secure
Utilize accurate stream : Yes
Defeat audio cache : Yes
Make use of C2 pointers : No
Read offset correction : 30
Overread into Lead-In and Lead-Out : No
Fill up missing offset samples with silence : Yes
Delete leading and trailing silent blocks : No
Null samples used in CRC calculations : Yes
Used interface : Native Win32 interface for Win NT & 2000
Used output format : User Defined Encoder
Selected bitrate : 1024 kBit/s
Quality : High
Add ID3 tag : No
Command line compressor : C:\Program Files (x86)\Exact Audio Copy\Flac\flac.exe
Additional command line options : -8 -V %s
TOC of the extracted CD
Track | Start | Length | Start sector | End sector
---------------------------------------------------------
1 | 0:00.00 | 5:31.08 | 0 | 24832
2 | 5:31.08 | 6:01.30 | 24833 | 51937
3 | 11:32.38 | 7:00.01 | 51938 | 83438
4 | 18:32.39 | 4:05.11 | 83439 | 101824
5 | 22:37.50 | 3:00.00 | 101825 | 115324
6 | 25:37.50 | 5:42.15 | 115325 | 140989
7 | 31:19.65 | 5:33.56 | 140990 | 166020
8 | 36:53.46 | 3:50.57 | 166021 | 183327
Range status and errors
Selected range
Filename D:\bki71\Belphegor\Belphegor - Blood Magick Necromance (LE, Nuclear Blast NB 2653-2 27361 26532).wav
Peak level 99.2 %
Range quality 100.0 %
Test CRC A599B42B
Copy CRC A599B42B
Copy OK
No errors occurred
AccurateRip summary
Track 1 cannot be verified as accurate (confidence 3) [87BF1FFD], AccurateRip returned [BD9A0FC4]
Track 2 cannot be verified as accurate (confidence 3) [A25AAD32], AccurateRip returned [B789E7A1]
Track 3 cannot be verified as accurate (confidence 3) [70CDB04E], AccurateRip returned [D3231AB3]
Track 4 cannot be verified as accurate (confidence 3) [2A7C92C1], AccurateRip returned [39E828EE]
Track 5 cannot be verified as accurate (confidence 3) [A7184A65], AccurateRip returned [189A11D2]
Track 6 cannot be verified as accurate (confidence 3) [F810B4CD], AccurateRip returned [AA3F8B92]
Track 7 cannot be verified as accurate (confidence 3) [4F861012], AccurateRip returned [48C1BD46]
Track 8 cannot be verified as accurate (confidence 3) [21B3F6B0], AccurateRip returned [28BBFB00]
No tracks could be verified as accurateYou may have a different pressing from the one(s) in the database
End of status report
-Доп. информация: Все рипы с фирменных дисков, все сканы в комплекте.
-
[Profile]  [PM] 
Display posts:    
Reply to topic

Current time is: 29-Sep 17:59

All times are UTC + 2



You cannot post new topics in this forum
You cannot reply to topics in this forum
You cannot edit your posts in this forum
You cannot delete your posts in this forum
You cannot vote in polls in this forum
You cannot attach files in this forum
You cannot download files in this forum