(Black Metal) Rotting Christ - Satanas Tedeum {Demo} - 1994 {1989}, FLAC (image+.cue), lossless

Reply to topic
 
Author
Message

Rogvald ®

Gender: Male

Longevity: 11 years

Posts: 836

Reputation: 1006 [+] [-]

Rogvald · Post 15-Jun-2014 02:01

[Quote] 

Rotting Christ / Satanas Tedeum {Demo}
Жанр: Black Metal
Страна-производитель диска: Greece
Год издания диска: 1994 {1989}
Издатель (лейбл): Unisound Records
Номер по каталогу: USR 015
Страна: Greece (Athens, Attica)
Аудиокодек: FLAC (*.flac)
Тип рипа: image+.cue
Битрейт аудио: lossless
Продолжительность: 00:17:12
Источник (релизер): Original CD
Наличие сканов в содержимом раздачи: да
Треклист:
1. The Hills Of The Crucifixion 03:11
2. Feast Of The Grand Whore 03:20
3. The Nereid Of Esgalduin 03:43
4. Restoration Of The Infernal Kingdom 03:08
5. The Sixth Communion 03:50
corrected / updated : 10-Авг-11

Лог создания рипа

Exact Audio Copy V1.0 beta 2 from 29. April 2011
EAC extraction logfile from 10. August 2011, 13:36
Rotting Christ / Satanas Tedeum
Used drive : Optiarc DVD RW AD-7200S Adapter: 1 ID: 0
Read mode : Secure
Utilize accurate stream : Yes
Defeat audio cache : Yes
Make use of C2 pointers : No
Read offset correction : 48
Overread into Lead-In and Lead-Out : No
Fill up missing offset samples with silence : Yes
Delete leading and trailing silent blocks : No
Null samples used in CRC calculations : No
Used interface : Native Win32 interface for Win NT & 2000
Used output format : Internal WAV Routines
Sample format : 44.100 Hz; 16 Bit; Stereo
TOC of the extracted CD
Track | Start | Length | Start sector | End sector
---------------------------------------------------------
1 | 0:00.00 | 3:10.61 | 0 | 14310
2 | 3:10.61 | 3:20.34 | 14311 | 29344
3 | 6:31.20 | 3:42.63 | 29345 | 46057
4 | 10:14.08 | 3:07.47 | 46058 | 60129
5 | 13:21.55 | 3:49.60 | 60130 | 77364
Range status and errors
Selected range
Filename C:\Users\axel\Documents\Rotting Christ - Satanas Tedeum.wav
Peak level 71.2 %
Extraction speed 2.9 X
Range quality 99.9 %
Copy CRC 56A425BD
Copy OK
No errors occurred
AccurateRip summary
Track 1 accurately ripped (confidence 2) [847D586C] (AR v1)
Track 2 accurately ripped (confidence 3) [A0790BF3] (AR v1)
Track 3 accurately ripped (confidence 3) [1210C638] (AR v1)
Track 4 accurately ripped (confidence 3) [721259F5] (AR v1)
Track 5 accurately ripped (confidence 3) [7EDFF0DC] (AR v1)
All tracks accurately ripped
End of status report

Содержание индексной карты (.CUE)

REM GENRE "Black Metal"
REM DATE 1989
REM DISCID 35040705
REM COMMENT "ExactAudioCopy v1.0b2"
PERFORMER "Rotting Christ"
TITLE "Satanas Tedeum"
FILE "Rotting Christ - Satanas Tedeum.flac" WAVE
TRACK 01 AUDIO
TITLE "The Hills Of The Crucifixion"
PERFORMER "Rotting Christ"
INDEX 01 00:00:00
TRACK 02 AUDIO
TITLE "Feast Of The Grand Whore"
PERFORMER "Rotting Christ"
INDEX 00 03:08:61
INDEX 01 03:10:61
TRACK 03 AUDIO
TITLE "The Nereid Of Esgalduin"
PERFORMER "Rotting Christ"
INDEX 00 06:29:20
INDEX 01 06:31:20
TRACK 04 AUDIO
TITLE "Restoration Of The Infernal Kingdom"
PERFORMER "Rotting Christ"
INDEX 00 10:12:08
INDEX 01 10:14:08
TRACK 05 AUDIO
TITLE "The Sixth Communion"
PERFORMER "Rotting Christ"
INDEX 00 13:19:55
INDEX 01 13:21:55

Состав

Jim Mutilator - Bass, Vocals (backing)
Sakis - Vocals, Guitars
Necrosauron - Drums
[Profile]  [PM] 
Display posts:    
Reply to topic

Current time is: 19-Sep 11:36

All times are UTC + 2



You cannot post new topics in this forum
You cannot reply to topics in this forum
You cannot edit your posts in this forum
You cannot delete your posts in this forum
You cannot vote in polls in this forum
You cannot attach files in this forum
You cannot download files in this forum