(Viking / Black Metal) Solstafir - I Blodi Og Anda (In Blood And Spirit) (2002), APE (image + .cue), lossless

Reply to topic
 
Author
Message

Rogvald ®

Gender: Male

Longevity: 11 years

Posts: 836

Reputation: 1006 [+] [-]

Rogvald · Post 15-Jun-2014 19:45

[Quote] 

Solstafir - I Blodi Og Anda (In Blood And Spirit)
Страна: Iceland
Жанр: Viking / Black Metal
Год выпуска: 2002
Формат: APE (image + .cue)
Битрейт аудио: lossless
Продолжительность: 57:00
Трэклист:
1. Undir Jokli (Vetrarins Saudu Sumarblom)
2. I Blodi og Anda
3. The Underworld Song
4. Tormentor
5. 2000 Ar
6. Ei Vid Munum Idrast
7. Bitch In Black
8. I Viking
9. Arstidir Daudans
Реализовано с лицензионного диска Oskorei Music (2004)

Log EAC:

Exact Audio Copy V0.99 prebeta 3 from 28. July 2007
Отчёт EAC об извлечении, выполненном 27. января 2008, 0:08
Solstafir / I Blodi og Anda
Дисковод: _NEC DVD_RW ND-3520AW Adapter: 0 ID: 2
Режим чтения : Достоверность
Использование точного потока : Да
Отключение кэша аудио : Да
Использование указателей C2 : Нет
Коррекция смещения при чтении : 48
Способность читать области Lead-in и Lead-out : Нет
Заполнение пропущенных сэмплов тишиной : Да
Удаление блоков с тишиной в начале и конце : Нет
При вычислениях CRC использовались нулевые сэмплы : Да
Интерфейс : Установленный внешний ASPI-интерфейс
Выходной формат : Monkey's Audio (без потерь)
Выбранный битрейт : High Lossless Compression
Качество : Высокий
Добавление ID3-тэга : Нет
Утилита сжатия : C:\Program Files\Monkey's Audio\MAC.exe
TOC извлечённого CD
Трек | Старт | Длительность | Начальный сектор | Конечный сектор
---------------------------------------------------------------------
1 | 0:00.00 | 4:36.02 | 0 | 20701
2 | 4:36.02 | 4:28.61 | 20702 | 40862
3 | 9:04.63 | 4:20.29 | 40863 | 60391
4 | 13:25.17 | 2:01.17 | 60392 | 69483
5 | 15:26.34 | 4:16.22 | 69484 | 88705
6 | 19:42.56 | 9:04.60 | 88706 | 129565
7 | 28:47.41 | 8:26.51 | 129566 | 167566
8 | 37:14.17 | 9:01.55 | 167567 | 208196
9 | 46:15.72 | 10:33.19 | 208197 | 255690
Характеристики диапазона извлечения и сообщения об ошибках
Выбранный диапазон
Имя файла C:\CD\Torrents\Solstafir - I Blodi Og Anda (In Blood And Spirit) (2002)\Solstafir - I Blodi og Anda.wav
Пиковый уровень 96.6 %
Качество диапазона 100.0 %
CRC копии 26C632AC
Копирование... OK
Ошибок не произошло
Конец отчёта

Рецензия из Rest Art'zine (Спасибо автору zine'а)

А вот и первый за долгие годы существования команды лонгплей. Целых семь лет шли к нему исландцы. По сравнению с дебютным миником творческий порыв не только не иссяк, но и подарил альбому неиссякаемую эмоциональную бездну. "Til Valhallar" был исполнен в строгом нордическом ключе, здесь же влияние севера не уменьшилось, однако появилось обширное пространство для маневров - завуалированных панковских и хардкоровских штучек. Музыканты не злоупотребляют скандинавизмом ни музыкально, ни эстетически.
Первая половина диска буквально сочится истерикой и необъяснимой, необузданной и сногсшибающей радостью. Чувства бурлят, кипят и бьют ключом. Вторая же выполнена в спокойном, задумчивом, медитативном ключе. Шторм стихает, ярость стремглав сменяется мудростью и созерцанием. Если закрыть глаза и дать волю фантазии, то в миг переносишься к исландским фиордам. Под мерный плеск волн вглядываешься в закатную дымку, предаешься воспоминаниям и думаешь о непреходящем...
Работа блещет композиционной неординарностью, как на уровне одной дорожки, так и в формате целого альбома. Умелое обращение с инструментами можно было зарегистрировать еще на минике, а по прошествии нескольких лет класс музыкантов достиг уровня высшей лиги. Помимо этого нельзя не отметить вклад гитариста и вокалиста Adalbjörn'а, одного из самых запоминающихся "горлодеров" современной блэк-сцены. В отличие от многих других крикунов он не истерит вхолостую - его вокал всегда несет в себе экспрессивность.
Сладкой конфетки заслуживает и звукорежиссура. Островные мастера во главе с Финнуром Хаконнарсонном вырулили очень собранный, острый и пряный звук в пику сытым континентальным студийщикам с толстым брюхом, громким именем и шаблонно-манерным саундом.
За счет штормовой мелодики и бездонной мощи "Í Blóði Og Anda" слушается с упоением, на одном дыхании. Выделять какие-либо сильные моменты - занятие неблагодарное и заранее обреченное на полный провал. Условно и "за глаза" можно похвалить "Undir Jökli", с ходу настраивающую на исключительно боевой лад, "The Underworld", первый трек, в котором показываются прозрачные задумчивые нотки, и "Bitch in Black", ироничный псевдо-медляк, неописуемо сочетающий нежность и насмешку. Проникновенная мелодия соседствует с лукавой лирикой.
ПРИГОВОР: Исключительно мощная работа, выполненная по олимпийскому принципу "быстрее, выше, сильнее".
[Profile]  [PM] 
Display posts:    
Reply to topic

Current time is: 26-Sep 03:02

All times are UTC + 2



You cannot post new topics in this forum
You cannot reply to topics in this forum
You cannot edit your posts in this forum
You cannot delete your posts in this forum
You cannot vote in polls in this forum
You cannot attach files in this forum
You cannot download files in this forum