(Heathen Dark Metal / Psychedelic Rock) Solstafir - Svartir Sandar (2011), FLAC (image+.cue), lossless

Reply to topic
 
Author
Message

Rogvald ®

Gender: Male

Longevity: 11 years

Posts: 836

Reputation: 1006 [+] [-]

Rogvald · Post 16-Jun-2014 01:52

[Quote] 

Solstafir - Svartir Sandar
Жанр: Heathen Dark Metal / Psychedelic Rock
Год издания диска: 2011
Издатель (лейбл): Season Of Mist
Номер по каталогу: SOM 247
Страна: Iceland
Аудиокодек: FLAC (*.flac)
Тип рипа: image+.cue
Битрейт аудио: lossless
Продолжительность: 39:44 + 37:44
Источник (релизер): Собственный рип
Наличие сканов в содержимом раздачи: да
Треклист:
Disc 1:
1. Ljós í Stormi 11:35
2. Fjara 06:39
3. Þín Orð 06:20
4. Sjúki Skugginn 05:07
5. Æra 04:53
6. Kukl 05:08
Disc 2:
1. Melrakkablús 09:58
2. Draumfari 03:40
3. Stinningskaldi 01:15
4. Stormfari 03:37
5. Svartir Sandar 08:21
6. Djákninn 10:51

Лог создания рипа CD1

Exact Audio Copy V1.0 beta 2 from 29. April 2011
EAC extraction logfile from 18. October 2011, 18:55
Solstafir / Svartir Sandar Disc 1
Used drive : ASUS DRW-1608P Adapter: 1 ID: 0
Read mode : Secure
Utilize accurate stream : Yes
Defeat audio cache : Yes
Make use of C2 pointers : No
Read offset correction : 48
Overread into Lead-In and Lead-Out : No
Fill up missing offset samples with silence : Yes
Delete leading and trailing silent blocks : No
Null samples used in CRC calculations : Yes
Used interface : Native Win32 interface for Win NT & 2000
Used output format : Internal WAV Routines
Sample format : 44.100 Hz; 16 Bit; Stereo
TOC of the extracted CD
Track | Start | Length | Start sector | End sector
---------------------------------------------------------
1 | 0:00.00 | 11:35.29 | 0 | 52153
2 | 11:35.29 | 6:39.53 | 52154 | 82131
3 | 18:15.07 | 6:20.70 | 82132 | 110701
4 | 24:36.02 | 5:07.26 | 110702 | 133752
5 | 29:43.28 | 4:52.69 | 133753 | 155721
6 | 34:36.22 | 5:08.09 | 155722 | 178830
Range status and errors
Selected range
Filename E:\Solstafir - Svartir Sandar Disc 1.wav
Peak level 98.7 %
Extraction speed 5.9 X
Range quality 99.9 %
Test CRC A7024F65
Copy CRC A7024F65
Copy OK
No errors occurred
AccurateRip summary
Track 1 not present in database
Track 2 not present in database
Track 3 not present in database
Track 4 not present in database
Track 5 not present in database
Track 6 not present in database
None of the tracks are present in the AccurateRip database
End of status report

Лог создания рипа CD2

Exact Audio Copy V1.0 beta 2 from 29. April 2011
EAC extraction logfile from 18. October 2011, 19:14
Solstafir / Svartir Sandar Disc 2
Used drive : ASUS DRW-1608P Adapter: 1 ID: 0
Read mode : Secure
Utilize accurate stream : Yes
Defeat audio cache : Yes
Make use of C2 pointers : No
Read offset correction : 48
Overread into Lead-In and Lead-Out : No
Fill up missing offset samples with silence : Yes
Delete leading and trailing silent blocks : No
Null samples used in CRC calculations : Yes
Used interface : Native Win32 interface for Win NT & 2000
Used output format : Internal WAV Routines
Sample format : 44.100 Hz; 16 Bit; Stereo
TOC of the extracted CD
Track | Start | Length | Start sector | End sector
---------------------------------------------------------
1 | 0:00.00 | 9:58.40 | 0 | 44889
2 | 9:58.40 | 3:39.60 | 44890 | 61374
3 | 13:38.25 | 1:15.17 | 61375 | 67016
4 | 14:53.42 | 3:37.40 | 67017 | 83331
5 | 18:31.07 | 8:21.23 | 83332 | 120929
6 | 26:52.30 | 10:51.54 | 120930 | 169808
Range status and errors
Selected range
Filename E:\Solstafir - Svartir Sandar Disc 2.wav
Peak level 98.7 %
Extraction speed 5.5 X
Range quality 100.0 %
Test CRC 48B1F1D1
Copy CRC 48B1F1D1
Copy OK
No errors occurred
AccurateRip summary
Track 1 not present in database
Track 2 not present in database
Track 3 not present in database
Track 4 not present in database
Track 5 not present in database
Track 6 not present in database
None of the tracks are present in the AccurateRip database
End of status report

Об исполнителе (группе)

SÓLSTAFIR have come a long way from an obscure Black Metal band out of Reykjavik, Iceland to a musically mindboggling and unique mixture of dark Metal, psychedelic passions and an eerily rocking groove – beloved and praised by critics and fans alike. This band’s journey started in the year 1994 and continuously meandered into something that their many die hard adherents describe as ‘extremely cool’ and ‘different’. SÓLSTAFIR’s latest releases “Masterpiece of Bitterness” (2005) and “Köld” (2009) gained high acclaim from all sides. Now the quartet’s burgeoning creativity has been bubbling up like a hot geyser unleashing their breathtaking double album “Svartir Sandar”, which takes the metamorphosis of these individualists close to perfection. This eagerly awaited masterpiece comes with a red hot passion like glowing magma and emotionality as stormy as the Northern Atlantic. Ride this volcano with Iceland’s gnarled and twisted cowboys of Rock and Metal!
http://www.myspace.com/solstafir
http://www.solstafir.net/

Состав

Aðalbjörn Tryggvason - Guitar/Vocals
Sæþór Maríus Sæþórsson – Guitar
Svavar Austmann – Bass
Guðmundur Óli Pálmason - Drums
[Profile]  [PM] 
Display posts:    
Reply to topic

Current time is: 20-Sep 19:42

All times are UTC + 2



You cannot post new topics in this forum
You cannot reply to topics in this forum
You cannot edit your posts in this forum
You cannot delete your posts in this forum
You cannot vote in polls in this forum
You cannot attach files in this forum
You cannot download files in this forum