(Thrash/Black Metal) Venom - MMV [4CD Boxset] (2005), FLAC (image+.cue), lossless

Reply to topic
 
Author
Message

Rogvald ®

Gender: Male

Longevity: 11 years

Posts: 836

Reputation: 1006 [+] [-]

Rogvald · Post 18-Jan-2015 18:38

[Quote] 

Venom - MMV [4CD Boxset]
Жанр: Thrash/Black Metal
Год выпуска диска: 2005
Производитель диска: USA, Castle Communications / UK, Sanctuary
Аудио кодек: FLAC
Тип рипа: image+.cue
Битрейт аудио: lossless
Трэклист:
Этот 4х-дисковый бокс-сет представляет собой сборник раритетных треков легендарных основателей black metal - группы VENOM.

CD1

01 — Raise The Dead (Demo)
02 — Red Light Fever (Demo)
03 — Angel Dust (Demo)
04 — Welcome To Hell (Demo)
05 — Sons Of Satan
06 — Schizo
07 — One Thousand Days In Sodom
08 — In League With Satan (Single)
09 — Live Like An Angel (Single)
10 — Bitch Witch (Outtake)
11 — Manitou (Abbey Road Uncut Version)
12 — Countess Bathory (Audio Sample)
13 — Heaven's On Fire
14 — To Hell And Back
15 — Black Metal (Remix)
16 — Hounds Of Hell (Outtake)
17 — Bloodlust
18 — In Nomine Satanas
19 — Die Hard (12' Version)
20 — Acid Queen (12' Version)
21 — At War With Satan (Preview)

Отчёт EAC

Exact Audio Copy V0.99 prebeta 4 from 23. January 2008
Отчёт EAC об извлечении, выполненном 17. мая 2009, 15:24
Venom / MMV (Disc One)
Дисковод: Optiarc DVD RW AD-7173S Adapter: 0 ID: 0
Режим чтения : Достоверность
Использование точного потока : Да
Отключение кэша аудио : Да
Использование указателей C2 : Нет
Коррекция смещения при чтении : 48
Способность читать области Lead-in и Lead-out : Нет
Заполнение пропущенных сэмплов тишиной : Да
Удаление блоков с тишиной в начале и конце : Нет
При вычислениях CRC использовались нулевые сэмплы : Да
Интерфейс : Установленный внешний ASPI-интерфейс
Выходной формат : Внутренние WAV-операции
Формат сэмплов : 44.100 Гц; 16 бит; стерео
TOC извлечённого CD
Трек | Старт | Длительность | Начальный сектор | Конечный сектор
---------------------------------------------------------------------
1 | 0:00.00 | 3:57.62 | 0 | 17836
2 | 3:57.62 | 2:57.14 | 17837 | 31125
3 | 6:55.01 | 3:29.47 | 31126 | 46847
4 | 10:24.48 | 3:12.45 | 46848 | 61292
5 | 13:37.18 | 3:33.67 | 61293 | 77334
6 | 17:11.10 | 3:29.44 | 77335 | 93053
7 | 20:40.54 | 4:32.29 | 93054 | 113482
8 | 25:13.08 | 3:54.03 | 113483 | 131035
9 | 29:07.11 | 3:23.55 | 131036 | 146315
10 | 32:30.66 | 3:03.68 | 146316 | 160108
11 | 35:34.59 | 3:38.55 | 160109 | 176513
12 | 39:13.39 | 3:46.08 | 176514 | 193471
13 | 42:59.47 | 3:41.06 | 193472 | 210052
14 | 46:40.53 | 3:01.15 | 210053 | 223642
15 | 49:41.68 | 2:26.49 | 223643 | 234641
16 | 52:08.42 | 3:18.60 | 234642 | 249551
17 | 55:27.27 | 3:27.60 | 249552 | 265136
18 | 58:55.12 | 4:45.27 | 265137 | 286538
19 | 63:40.39 | 3:08.66 | 286539 | 300704
20 | 66:49.30 | 3:02.54 | 300705 | 314408
21 | 69:52.09 | 2:19.41 | 314409 | 324874
Характеристики диапазона извлечения и сообщения об ошибках
Выбранный диапазон
Имя файла C:\mp3\Venom - MMV (Disc One).wav
Пиковый уровень 98.8 %
Качество диапазона 100.0 %
CRC копии 35BB42C6
Копирование... OK
Ошибок не произошло
Конец отчёта

CD2

01 — Intro: Tape 83/84
02 — At War With Satan
03 — At War With Satan (TV Spots)
04 — Rip Ride
05 — Cry Wolf
06 — Stand Up
07 — Lady Lust
08 — 7 Gates Of Hell
09 — Warhead
10 — Venom Radio One I.D.
11 — Angel Dust
12 — Mystique
13 — Wing And A Prayer
14 — Possessed (Remix)
15 — Intro Tape 85-86
16 — Nightmare (12' Version)
17 — Satanachist
18 — F.O.A.D.

Отчёт EAC

Exact Audio Copy V0.99 prebeta 4 from 23. January 2008
Отчёт EAC об извлечении, выполненном 17. мая 2009, 15:09
Venom / MMV (Disc Two)
Дисковод: Optiarc DVD RW AD-7173S Adapter: 0 ID: 0
Режим чтения : Достоверность
Использование точного потока : Да
Отключение кэша аудио : Да
Использование указателей C2 : Нет
Коррекция смещения при чтении : 48
Способность читать области Lead-in и Lead-out : Нет
Заполнение пропущенных сэмплов тишиной : Да
Удаление блоков с тишиной в начале и конце : Нет
При вычислениях CRC использовались нулевые сэмплы : Да
Интерфейс : Установленный внешний ASPI-интерфейс
Выходной формат : Внутренние WAV-операции
Формат сэмплов : 44.100 Гц; 16 бит; стерео
TOC извлечённого CD
Трек | Старт | Длительность | Начальный сектор | Конечный сектор
---------------------------------------------------------------------
1 | 0:00.00 | 1:41.27 | 0 | 7601
2 | 1:41.27 | 19:53.65 | 7602 | 97141
3 | 21:35.17 | 1:03.01 | 97142 | 101867
4 | 22:38.18 | 3:09.16 | 101868 | 116058
5 | 25:47.34 | 4:16.42 | 116059 | 135300
6 | 30:04.01 | 3:20.40 | 135301 | 150340
7 | 33:24.41 | 2:43.11 | 150341 | 162576
8 | 36:07.52 | 5:23.68 | 162577 | 186869
9 | 41:31.45 | 5:50.73 | 186870 | 213192
10 | 47:22.43 | 0:23.03 | 213193 | 214920
11 | 47:45.46 | 2:58.30 | 214921 | 228300
12 | 50:44.01 | 4:55.43 | 228301 | 250468
13 | 55:39.44 | 2:41.63 | 250469 | 262606
14 | 58:21.32 | 5:06.54 | 262607 | 285610
15 | 63:28.11 | 0:59.01 | 285611 | 290036
16 | 64:27.12 | 3:54.59 | 290037 | 307645
17 | 68:21.71 | 2:40.65 | 307646 | 319710
18 | 71:02.61 | 3:01.30 | 319711 | 333315
Характеристики диапазона извлечения и сообщения об ошибках
Выбранный диапазон
Имя файла C:\mp3\Venom - MMV (Disc Two).wav
Пиковый уровень 100.0 %
Качество диапазона 100.0 %
CRC копии 207EF158
Копирование... OK
Ошибок не произошло
Конец отчёта

CD3

01 — Intro
02 — Bloodlust
03 — The Evil One
04 — All Devil's Eve
05 — God's Forsaken
06 — Judgement Day
07 — Senile Decay (Outtake)
08 — Snots Shit (Outtake)
09 — Dead On Arrival (Outtake)
10 — Sadist
11 — The Chanting Of The Priests (Live)
12 — Buried Alive / Love Amongst The Dead (Live)
13 — Flytrap (Live)
14 — Welcome To Hell / Bloodlust (Live)
15 — Witching Hour (Live)
16 — Teachers Pet / Poison / Teachers Pet (Live)

Отчёт EAC

Exact Audio Copy V0.99 prebeta 4 from 23. January 2008
Отчёт EAC об извлечении, выполненном 17. мая 2009, 15:37
Venom / MMV (Disc Three)
Дисковод: Optiarc DVD RW AD-7173S Adapter: 0 ID: 0
Режим чтения : Достоверность
Использование точного потока : Да
Отключение кэша аудио : Да
Использование указателей C2 : Нет
Коррекция смещения при чтении : 48
Способность читать области Lead-in и Lead-out : Нет
Заполнение пропущенных сэмплов тишиной : Да
Удаление блоков с тишиной в начале и конце : Нет
При вычислениях CRC использовались нулевые сэмплы : Да
Интерфейс : Установленный внешний ASPI-интерфейс
Выходной формат : Внутренние WAV-операции
Формат сэмплов : 44.100 Гц; 16 бит; стерео
TOC извлечённого CD
Трек | Старт | Длительность | Начальный сектор | Конечный сектор
---------------------------------------------------------------------
1 | 0:00.00 | 1:59.29 | 0 | 8953
2 | 1:59.29 | 2:59.10 | 8954 | 22388
3 | 4:58.39 | 3:17.21 | 22389 | 37184
4 | 8:15.60 | 2:53.73 | 37185 | 50232
5 | 11:09.58 | 4:26.15 | 50233 | 70197
6 | 15:35.73 | 4:34.04 | 70198 | 90751
7 | 20:10.02 | 3:27.66 | 90752 | 106342
8 | 23:37.68 | 2:07.05 | 106343 | 115872
9 | 25:44.73 | 3:04.57 | 115873 | 129729
10 | 28:49.55 | 2:38.17 | 129730 | 141596
11 | 31:27.72 | 4:50.61 | 141597 | 163407
12 | 36:18.58 | 5:31.10 | 163408 | 188242
13 | 41:49.68 | 3:31.47 | 188243 | 204114
14 | 45:21.40 | 7:00.14 | 204115 | 235628
15 | 52:21.54 | 4:07.40 | 235629 | 254193
16 | 56:29.19 | 8:02.64 | 254194 | 290407
Характеристики диапазона извлечения и сообщения об ошибках
Выбранный диапазон
Имя файла C:\mp3\Venom - MMV (Disc Three).wav
Пиковый уровень 100.0 %
Качество диапазона 100.0 %
CRC копии 916D930C
Копирование... OK
Ошибок не произошло
Конец отчёта

CD4: Assault Series

01 — Nightmare (Re-Recorded Version)
02 — Too Loud For The Crowd (Re-Recorded Version)
03 — Bloodlust (Re-Recorded Version)
04 — Black Metal (Re-Recorded Version)
05 — Bursting Out (60 Min+ Version)
06 — 7 Gates Of Hell (Hammersmith 1984 Live)
07 — Countess Bathory (Hammersmith 1984 Live)
08 — Welcome To Hell (Hammersmith 1984 Live)
09 — Warhead (Hammersmith 1984 Live)
10 — Die Hard (Hammersmith 1984 Live)
11 — In Nomine Satanas (Hammersmith 1984 Live)
12 — Buried Alive (Hammersmith 1984 Live)
13 — Manitou (Abbey Road Version)
14 — Metro Radio Interview
15 — Venom (Bonus Track)

Отчёт EAC

Exact Audio Copy V0.99 prebeta 4 from 23. January 2008
Отчёт EAC об извлечении, выполненном 17. мая 2009, 15:55
Venom / MMV (Disc Four)
Дисковод: Optiarc DVD RW AD-7173S Adapter: 0 ID: 0
Режим чтения : Достоверность
Использование точного потока : Да
Отключение кэша аудио : Да
Использование указателей C2 : Нет
Коррекция смещения при чтении : 48
Способность читать области Lead-in и Lead-out : Нет
Заполнение пропущенных сэмплов тишиной : Да
Удаление блоков с тишиной в начале и конце : Нет
При вычислениях CRC использовались нулевые сэмплы : Да
Интерфейс : Установленный внешний ASPI-интерфейс
Выходной формат : Внутренние WAV-операции
Формат сэмплов : 44.100 Гц; 16 бит; стерео
TOC извлечённого CD
Трек | Старт | Длительность | Начальный сектор | Конечный сектор
---------------------------------------------------------------------
1 | 0:00.00 | 3:26.24 | 0 | 15473
2 | 3:26.24 | 2:07.67 | 15474 | 25065
3 | 5:34.16 | 2:36.64 | 25066 | 36829
4 | 8:11.05 | 3:09.18 | 36830 | 51022
5 | 11:20.23 | 2:56.59 | 51023 | 64281
6 | 14:17.07 | 4:48.17 | 64282 | 85898
7 | 19:05.24 | 6:16.46 | 85899 | 114144
8 | 25:21.70 | 4:01.28 | 114145 | 132247
9 | 29:23.23 | 4:41.23 | 132248 | 153345
10 | 34:04.46 | 3:18.20 | 153346 | 168215
11 | 37:22.66 | 8:30.58 | 168216 | 206523
12 | 45:53.49 | 2:59.29 | 206524 | 219977
13 | 48:53.03 | 4:49.38 | 219978 | 241690
14 | 53:42.41 | 4:12.03 | 241691 | 260593
15 | 57:54.44 | 4:13.47 | 260594 | 279615
Характеристики диапазона извлечения и сообщения об ошибках
Выбранный диапазон
Имя файла C:\mp3\Venom - MMV (Disc Four).wav
Пиковый уровень 98.8 %
Качество диапазона 99.9 %
CRC копии 2356A950
Копирование... OK
Ошибок не произошло
Конец отчёта
Доп. информация: Сканы обложек прилагаются. Отсутствуют сканы постера (не влез в сканер ) и большого буклета - его было жалко мять
[Profile]  [PM] 
Display posts:    
Reply to topic

Current time is: 22-Sep 15:18

All times are UTC + 2



You cannot post new topics in this forum
You cannot reply to topics in this forum
You cannot edit your posts in this forum
You cannot delete your posts in this forum
You cannot vote in polls in this forum
You cannot attach files in this forum
You cannot download files in this forum