(Black Metal) [CD] Asgard (Cz) - Eleonora: Odhaleni jinotaje (2013), FLAC (image+.cue), lossless

Reply to topic
 
Author
Message

Rogvald ®

Gender: Male

Longevity: 11 years

Posts: 836

Reputation: 1006 [+] [-]

Rogvald · Post 22-Feb-2015 19:41

[Quote] 

Asgard (Cz) / Eleonora: Odhaleni jinotaje
Жанр: Black Metal
Носитель: CD
Страна-производитель диска: Чехия
Год издания: 2013
Издатель (лейбл): Parat Magazine
Номер по каталогу: PM30
Страна: Чехия
Аудиокодек: FLAC (*.flac)
Тип рипа: image+.cue
Битрейт аудио: lossless
Продолжительность: 37:53
Источник (релизер): Собственный фирменный диск
Наличие сканов в содержимом раздачи: да
Треклист:
1. Zrození 00:40
2. Eleonora 03:06
3. Život honory 04:19
4. Chřadnutí 03:23
5. Ulehám k spánku věčnému 05:26
6. V okamžiku smrti 04:38
7. Pitva 04:59
8. Pátý květen 04:30
9. Tělo v rakev 06:05
10. Epilog 00:47

Лог создания рипа

Exact Audio Copy V1.0 beta 3 from 29. August 2011
EAC extraction logfile from 2. September 2014, 16:56
Asgard / Eleonora: Odhaleni Jinotaje
Used drive : Optiarc DVD RW AD-7260S Adapter: 1 ID: 1
Read mode : Secure
Utilize accurate stream : Yes
Defeat audio cache : Yes
Make use of C2 pointers : No
Read offset correction : 48
Overread into Lead-In and Lead-Out : No
Fill up missing offset samples with silence : Yes
Delete leading and trailing silent blocks : No
Null samples used in CRC calculations : Yes
Used interface : Native Win32 interface for Win NT & 2000
Used output format : Internal WAV Routines
Sample format : 44.100 Hz; 16 Bit; Stereo
TOC of the extracted CD
Track | Start | Length | Start sector | End sector
---------------------------------------------------------
1 | 0:00.00 | 0:40.07 | 0 | 3006
2 | 0:40.07 | 3:06.22 | 3007 | 16978
3 | 3:46.29 | 4:19.56 | 16979 | 36459
4 | 8:06.10 | 3:23.53 | 36460 | 51737
5 | 11:29.63 | 5:26.31 | 51738 | 76218
6 | 16:56.19 | 4:38.64 | 76219 | 97132
7 | 21:35.08 | 4:59.02 | 97133 | 119559
8 | 26:34.10 | 4:30.72 | 119560 | 139881
9 | 31:05.07 | 6:05.50 | 139882 | 167306
10 | 37:10.57 | 0:47.62 | 167307 | 170893
Range status and errors
Selected range
Filename C:\Мои документы\Asgard - 2013 - Eleonora- Odhaleni Jinotaje.wav
Peak level 99.9 %
Extraction speed 3.6 X
Range quality 100.0 %
Test CRC EE317E53
Copy CRC EE317E53
Copy OK
No errors occurred
AccurateRip summary
Track 1 not present in database
Track 2 not present in database
Track 3 not present in database
Track 4 not present in database
Track 5 not present in database
Track 6 not present in database
Track 7 not present in database
Track 8 not present in database
Track 9 not present in database
Track 10 not present in database
None of the tracks are present in the AccurateRip database
End of status report
---- CUETools DB Plugin V2.1.4
[CTDB TOCID: MPX22zndtS8yICcD7uTx81.XG0I-] found
Submit result: already submitted
Track | CTDB Status
1 | (1/1) Accurately ripped
2 | (1/1) Accurately ripped
3 | (1/1) Accurately ripped
4 | (1/1) Accurately ripped
5 | (1/1) Accurately ripped
6 | (1/1) Accurately ripped
7 | (1/1) Accurately ripped
8 | (1/1) Accurately ripped
9 | (1/1) Accurately ripped
10 | (1/1) Accurately ripped
==== Log checksum 245AC4F7FD361D78DA9E56A2ED5EC95CEED70B529E13D1CC8712B471BBF17E86 ====
Доп. информация: Качественный бодрый блэк из столицы Моравии
[Profile]  [PM] 
Display posts:    
Reply to topic

Current time is: 01-Oct 05:33

All times are UTC + 2



You cannot post new topics in this forum
You cannot reply to topics in this forum
You cannot edit your posts in this forum
You cannot delete your posts in this forum
You cannot vote in polls in this forum
You cannot attach files in this forum
You cannot download files in this forum