(Black Metal) Marduk - Serpent Sermon (Limited Edition) (2012), FLAC (image+.cue), lossless

Reply to topic
 
Author
Message

Rogvald ®

Gender: Male

Longevity: 11 years

Posts: 836

Reputation: 1006 [+] [-]

Rogvald · Post 22-Nov-2015 18:14

[Quote] 

Marduk / Serpent Sermon
Жанр: Black Metal
Год издания: 2012
Издатель (лейбл): Century Media Records
Страна: Sweden
Аудиокодек: FLAC (*.flac)
Тип рипа: image+.cue
Битрейт аудио: lossless
Продолжительность: 54:27
Источник (релизер): Диск из личной коллекции
Наличие сканов в содержимом раздачи: нет
Треклист:
1.Serpent Sermon
2.Messianic Pestilence
3.Souls for Belial
4.Into Second Death
5.Temple of Decay
6.Damnation's Gold
7.Hail Mary (Piss-soaked Genuflexion)
8.M.A.M.M.O.N.
9.Gospel of the Worm
10.World of Blades
11. Coram Satanae (Bonus Track)

Лог создания рипа

Exact Audio Copy V0.99 prebeta 5 from 4. May 2009
EAC extraction logfile from 24. May 2012, 14:08
Marduk / Serpent Sermon
Used drive : Optiarc DVD RW AD-7203S Adapter: 2 ID: 2
Read mode : Secure
Utilize accurate stream : Yes
Defeat audio cache : Yes
Make use of C2 pointers : No
Read offset correction : 48
Overread into Lead-In and Lead-Out : No
Fill up missing offset samples with silence : Yes
Delete leading and trailing silent blocks : No
Null samples used in CRC calculations : Yes
Used interface : Native Win32 interface for Win NT & 2000
Used output format : Internal WAV Routines
Sample format : 44.100 Hz; 16 Bit; Stereo
TOC of the extracted CD
Track | Start | Length | Start sector | End sector
---------------------------------------------------------
1 | 0:00.00 | 4:38.30 | 0 | 20879
2 | 4:38.30 | 2:50.69 | 20880 | 33698
3 | 7:29.24 | 4:45.11 | 33699 | 55084
4 | 12:14.35 | 5:11.00 | 55085 | 78409
5 | 17:25.35 | 5:25.22 | 78410 | 102806
6 | 22:50.57 | 6:48.06 | 102807 | 133412
7 | 29:38.63 | 3:27.26 | 133413 | 148963
8 | 33:06.14 | 3:29.32 | 148964 | 164670
9 | 36:35.46 | 2:37.55 | 164671 | 176500
10 | 39:13.26 | 7:11.51 | 176501 | 208876
11 | 46:25.02 | 8:02.66 | 208877 | 245092
Range status and errors
Selected range
Filename C:\Users\NECRONOM\Downloads\Music\Marduk - Serpent Sermon.wav
Peak level 100.0 %
Range quality 100.0 %
Copy CRC 3E4B7310
Copy OK
No errors occurred
AccurateRip summary
Track 1 not present in database
Track 2 not present in database
Track 3 not present in database
Track 4 not present in database
Track 5 not present in database
Track 6 not present in database
Track 7 not present in database
Track 8 not present in database
Track 9 not present in database
Track 10 not present in database
Track 11 not present in database
None of the tracks are present in the AccurateRip database
End of status report
[Profile]  [PM] 
Display posts:    
Reply to topic

Current time is: 29-Sep 19:56

All times are UTC + 2



You cannot post new topics in this forum
You cannot reply to topics in this forum
You cannot edit your posts in this forum
You cannot delete your posts in this forum
You cannot vote in polls in this forum
You cannot attach files in this forum
You cannot download files in this forum