Радость - это песня. Фильм о Большом Детском Хоре. (Г. Бабушкин) [1985, фильм-концерт, VHSRip]

Reply to topic
 
Author
Message

Atila ®

Gender: Unknown

Longevity: 7 years 4 months

Posts: 2496

Reputation: 0 [+] [-]

Atila · Post 04-Jun-2014 03:38

[Quote] 

Радость - это песня
Фильм о Большом Детском Хоре
Год выпуска: 1985
Страна: СССР
Жанр: фильм-концерт
Продолжительность: 00:50:23
Перевод: Не требуется
Русские субтитры: нет
Режиссер: Г. Бабушкин
Описание: "Радость - это песня" повествует о том, что происходит с ребенком с момента его поступления в Большой Детский Хор до участия в старшей группе хора. В основном - это съемки репетиций. Поэтому это скорее не фильм-концерт, а документальный фильм о легендарном БДХ.
Во время реставрации фильма опознанные в кадре герои были подписаны титрами.
Сэмпл: http://multi-up.com/912265
качество: VHSRip
формат: DVD video
Видео: MPEG2, PAL 720x576 (4:3), 6000 Kbps VBR, 25.000 fps
Аудио: Dolby AC3, 192 Kbps, 48.0 KHz, 2 ch

DVDinfo

Title: -G- (new)Size: 2.22 Gb ( 2 331 566 KBytes ) - DVD-5Enabled regions: 1, 2, 3, 4, 5, 6, 7, 8
VTS_01 : Play Length: 00:00:04+00:50:23 Video: PAL 4:3 (720x576) VBR Audio: English (Dolby AC3, 2 ch)

MediaInfo

ОбщееПолное имя                               : H:\BDH\1985 - Радость - это песня\VIDEO_TS\VIDEO_TS.BUPФормат                                   : DVD VideoПрофиль формата                          : MenuРазмер файла                             : 8,00 КбайтРежим общего битрейта                    : Переменный
ВидеоИдентификатор : 224 (0xE0)Формат : MPEG VideoВерсия формата : Version 1Вид битрейта : ПеременныйШирина : 720 пикселейВысота : 480 пикселейСоотношение сторон : 4:3Частота кадров : 29,970 кадров/секСтандарт вещания : NTSCМетод сжатия : С потерями
ОбщееПолное имя : H:\BDH\1985 - Радость - это песня\VIDEO_TS\VIDEO_TS.IFOФормат : DVD VideoПрофиль формата : MenuРазмер файла : 8,00 КбайтРежим общего битрейта : Переменный
ВидеоИдентификатор : 224 (0xE0)Формат : MPEG VideoВерсия формата : Version 1Вид битрейта : ПеременныйШирина : 720 пикселейВысота : 480 пикселейСоотношение сторон : 4:3Частота кадров : 29,970 кадров/секСтандарт вещания : NTSCМетод сжатия : С потерями
ОбщееПолное имя : H:\BDH\1985 - Радость - это песня\VIDEO_TS\VTS_01_0.BUPФормат : DVD VideoПрофиль формата : ProgramРазмер файла : 30,0 КбайтПродолжительность : 50 м.Режим общего битрейта : ПеременныйОбщий поток : 81 бит/сек
ВидеоИдентификатор : 224 (0xE0)Формат : MPEG VideoВерсия формата : Version 2Продолжительность : 50 м.Вид битрейта : ПеременныйШирина : 720 пикселейВысота : 576 пикселейСоотношение сторон : 4:3Частота кадров : 25,000 кадров/секСтандарт вещания : PALМетод сжатия : С потерями
АудиоИдентификатор : 128 (0x80)Формат : AC-3Формат/Информация : Audio Coding 3Продолжительность : 50 м.Каналы : 2 каналаЧастота : 48,0 КГцМетод сжатия : С потерямиЯзык : English
Меню #1Продолжительность : 4 с. 0 мс.00:00:00.000 : Chapter 1List (Audio) : 0
Меню #2Продолжительность : 50 м.00:00:00.000 : Chapter 1List (Audio) : 0
Меню #3
ОбщееПолное имя : H:\BDH\1985 - Радость - это песня\VIDEO_TS\VTS_01_0.IFOФормат : DVD VideoПрофиль формата : ProgramРазмер файла : 30,0 КбайтПродолжительность : 50 м.Режим общего битрейта : ПеременныйОбщий поток : 81 бит/сек
ВидеоИдентификатор : 224 (0xE0)Формат : MPEG VideoВерсия формата : Version 2Продолжительность : 50 м.Вид битрейта : ПеременныйШирина : 720 пикселейВысота : 576 пикселейСоотношение сторон : 4:3Частота кадров : 25,000 кадров/секСтандарт вещания : PALМетод сжатия : С потерями
АудиоИдентификатор : 128 (0x80)Формат : AC-3Формат/Информация : Audio Coding 3Продолжительность : 50 м.Каналы : 2 каналаЧастота : 48,0 КГцМетод сжатия : С потерямиЯзык : English
Меню #1Продолжительность : 4 с. 0 мс.00:00:00.000 : Chapter 1List (Audio) : 0
Меню #2Продолжительность : 50 м.00:00:00.000 : Chapter 1List (Audio) : 0
Меню #3
ОбщееПолное имя : H:\BDH\1985 - Радость - это песня\VIDEO_TS\VTS_01_1.VOBФормат : MPEG-PSРазмер файла : 1024 МбайтПродолжительность : 22 м.Общий поток : 6330 Кбит/сек
ВидеоИдентификатор : 224 (0xE0)Формат : MPEG VideoВерсия формата : Version 2Профиль формата : Main@MainПараметр BVOP формата : ДаПараметр матрицы формата : ВыборочнаяПараметр GOP формата : VariableПродолжительность : 22 м.Битрейт : 6012 Кбит/секШирина : 720 пикселейВысота : 576 пикселейСоотношение сторон : 4:3Частота кадров : 25,000 кадров/секСтандарт вещания : PALЦветовое пространство : YUVСубдискретизация насыщенности : 4:2:0Битовая глубина : 8 битТип развёртки : ЧересстрочнаяМетод сжатия : С потерямиБит/(Пиксели*Кадры) : 0.580Временной код первого кадра : 00:00:00:00Оригинал временного кода : Group of pictures headerРазмер потока : 972 Мбайт (95%)
АудиоИдентификатор : 189 (0xBD)-128 (0x80)Формат : AC-3Формат/Информация : Audio Coding 3Расширение режима : CM (complete main)Параметр Endianness формата : BigРежим смешивания : DVD-VideoПродолжительность : 22 м.Вид битрейта : ПостоянныйБитрейт : 192 Кбит/секКаналы : 2 каналаРасположение каналов : Front: L RЧастота : 48,0 КГцБитовая глубина : 16 битМетод сжатия : С потерямиРазмер потока : 31,1 Мбайт (3%)
Меню
ОбщееПолное имя : H:\BDH\1985 - Радость - это песня\VIDEO_TS\VTS_01_2.VOBФормат : MPEG-PSРазмер файла : 1024 МбайтПродолжительность : 22 м.Общий поток : 6306 Кбит/сек
ВидеоИдентификатор : 224 (0xE0)Формат : MPEG VideoВерсия формата : Version 2Профиль формата : Main@MainПараметр BVOP формата : ДаПараметр матрицы формата : ВыборочнаяПараметр GOP формата : M=3, N=15Продолжительность : 22 м.Битрейт : 6000 Кбит/секШирина : 720 пикселейВысота : 576 пикселейСоотношение сторон : 4:3Частота кадров : 25,000 кадров/секСтандарт вещания : PALЦветовое пространство : YUVСубдискретизация насыщенности : 4:2:0Битовая глубина : 8 битТип развёртки : ЧересстрочнаяПорядок развёртки : Верхнее поле первоеМетод сжатия : С потерямиБит/(Пиксели*Кадры) : 0.579Временной код первого кадра : 00:22:36:22Оригинал временного кода : Group of pictures headerРазмер потока : 972 Мбайт (95%)
АудиоИдентификатор : 189 (0xBD)-128 (0x80)Формат : AC-3Формат/Информация : Audio Coding 3Расширение режима : CM (complete main)Параметр Endianness формата : BigРежим смешивания : DVD-VideoПродолжительность : 22 м.Вид битрейта : ПостоянныйБитрейт : 192 Кбит/секКаналы : 2 каналаРасположение каналов : Front: L RЧастота : 48,0 КГцБитовая глубина : 16 битМетод сжатия : С потерямиЗадержка видео : -192 мс.Размер потока : 31,2 Мбайт (3%)
Меню
ОбщееПолное имя : H:\BDH\1985 - Радость - это песня\VIDEO_TS\VTS_01_3.VOBФормат : MPEG-PSРазмер файла : 229 МбайтПродолжительность : 5 м. 5 с.Общий поток : 6303 Кбит/сек
ВидеоИдентификатор : 224 (0xE0)Формат : MPEG VideoВерсия формата : Version 2Профиль формата : Main@MainПараметр BVOP формата : ДаПараметр матрицы формата : ВыборочнаяПараметр GOP формата : M=3, N=15Продолжительность : 5 м. 4 с.Битрейт : 6000 Кбит/секШирина : 720 пикселейВысота : 576 пикселейСоотношение сторон : 4:3Частота кадров : 25,000 кадров/секСтандарт вещания : PALЦветовое пространство : YUVСубдискретизация насыщенности : 4:2:0Битовая глубина : 8 битТип развёртки : ЧересстрочнаяПорядок развёртки : Верхнее поле первоеМетод сжатия : С потерямиБит/(Пиксели*Кадры) : 0.579Временной код первого кадра : 00:45:18:23Оригинал временного кода : Group of pictures headerРазмер потока : 218 Мбайт (95%)
АудиоИдентификатор : 189 (0xBD)-128 (0x80)Формат : AC-3Формат/Информация : Audio Coding 3Расширение режима : CM (complete main)Параметр Endianness формата : BigРежим смешивания : DVD-VideoПродолжительность : 5 м. 5 с.Вид битрейта : ПостоянныйБитрейт : 192 Кбит/секКаналы : 2 каналаРасположение каналов : Front: L RЧастота : 48,0 КГцБитовая глубина : 16 битМетод сжатия : С потерямиЗадержка видео : -248 мс.Размер потока : 6,98 Мбайт (3%)
Меню

Тех.подробности по релизу

Исходник: VHS-кассета. Дешёвая. Но 1-я копия. Запись не с телевизора. Оцифровка кинопленки. Делалась давно.
VHS-rip: Карточкой Beholder SAA7135. Чистый AVI. Без сжатия и фильтров.
VirtualDub: Разделение на видео и аудио потоки.
VirtualDub: Resize картинки (вниз/вправо) с целью кропнуть "помехи VHS" + 16% шарпинг.
Adobe Audition: Чистка звука.
PureMotion EditStudio5: Склейка видео и аудио + титрование.
Canopus Procoder2: Кодирование в m2v/wav для DVD-проекта.
Sonic ReelDVD: Создание DVD.

Скриншоты




[Profile]  [PM] 
Display posts:    
Reply to topic

Current time is: 14-Oct 12:40

All times are UTC + 2



You cannot post new topics in this forum
You cannot reply to topics in this forum
You cannot edit your posts in this forum
You cannot delete your posts in this forum
You cannot vote in polls in this forum
You cannot attach files in this forum
You cannot download files in this forum