Княгиня Тенишева или в поисках утраченного образа (Валерий Демин, Людмила Демина) [2007 г., Историко-биографический, DVD5]

Reply to topic
 
Author
Message

Atila ®

Gender: Unknown

Longevity: 7 years 4 months

Posts: 2496

Reputation: 0 [+] [-]

Atila · Post 04-Jun-2014 03:38

[Quote] 

Княгиня Тенишева или в поисках утраченного образа
Год выпуска: 2007
Страна: Россия
Студия: Продюсерская компания Юрия Гинзбурга
Жанр: Историко-биографический
Продолжительность: 00:26:15 + 00:27:30 + 00:27:50
Перевод: Не требуется
Русские субтитры: нет
Режиссер: В. Демин, Л. Демина
Описание: Современники называли княгиню Марию Клавдиевну Тенишеву (1858-1928) «гордостью России». После революции благополучно забыли. В наши дни её образ, её дело могут стать основой социального творчества принципиально иного типа, в котором наша страна способна заново обрести смысл своего исторического призвания. Авторы избрали форму, которую они назвали «эскизы киноромана». В нем исповедь героини, взятая из её воспоминаний, переплетается с исповедью другого документального лица – актрисы Раисы Мигуновой. Это дает возможность приблизить историю к нашим современникам, сделать повествование не информационно-справочным, а актуально-личностным. Душа с душою говорит о том, как нам жить дальше, в чем тайна радости, есть ли смысл в нашей истории?
Бонусы: Отсутствуют.
Меню: Присутствует, английский / транслит, статичное, неозвученное.
Сэмпл: http://www.sendspace.com/file/71ie7f
Тип релиза: DVD5
Контейнер: DVD-Video
Видео: ~ 4522-4592 Кбит/сек, 720*576 (4:3), в 25,000 кадров/сек, MPEG Video (PAL) (Version 2) (Main@Main) (CustomMatrix / BVOP)
Аудио: Русский, 256 Кбит/сек, 48,0 КГц, 16 бит, 2 канала, AC-3 (DVD-Video)

MediaInfo

ОбщееПолное имя                               : L:\Monar.ru\Видео\Документальные фильмы\История России и мира\Княгиня Тенишева или в поисках утраченного образа\VIDEO_TS\VIDEO_TS.BUPФормат                                   : DVD VideoПрофиль формата                          : MenuРазмер файла                             : 14,0 КбайтРежим общего битрейта                    : Переменный
ВидеоИдентификатор : 224 (0xE0)Формат : MPEG VideoВерсия формата : Version 2Вид битрейта : ПеременныйШирина : 720 пикселейВысота : 576 пикселейСоотношение сторон : 4:3Частота кадров : 25,000 кадров/секСтандарт вещания : PALМетод сжатия : С потерями
ТекстФормат : RLEФормат/Информация : Run-length encodingБитовая глубина : 2 бит
ОбщееПолное имя : L:\Monar.ru\Видео\Документальные фильмы\История России и мира\Княгиня Тенишева или в поисках утраченного образа\VIDEO_TS\VIDEO_TS.IFOФормат : DVD VideoПрофиль формата : MenuРазмер файла : 14,0 КбайтРежим общего битрейта : Переменный
ВидеоИдентификатор : 224 (0xE0)Формат : MPEG VideoВерсия формата : Version 2Вид битрейта : ПеременныйШирина : 720 пикселейВысота : 576 пикселейСоотношение сторон : 4:3Частота кадров : 25,000 кадров/секСтандарт вещания : PALМетод сжатия : С потерями
ТекстФормат : RLEФормат/Информация : Run-length encodingБитовая глубина : 2 бит
ОбщееПолное имя : L:\Monar.ru\Видео\Документальные фильмы\История России и мира\Княгиня Тенишева или в поисках утраченного образа\VIDEO_TS\VIDEO_TS.VOBФормат : MPEG-PSРазмер файла : 104 КбайтПродолжительность : 40 мс.Режим общего битрейта : ПеременныйОбщий поток : 21,3 Мбит/сек
ВидеоИдентификатор : 224 (0xE0)Формат : MPEG VideoВерсия формата : Version 2Профиль формата : Main@MainПараметр BVOP формата : НетПараметр матрицы формата : ВыборочнаяПродолжительность : 40 мс.Вид битрейта : ПеременныйМаксимальный битрейт : 9500 Кбит/секШирина : 720 пикселейВысота : 576 пикселейСоотношение сторон : 4:3Частота кадров : 25,000 кадров/секСтандарт вещания : PALЦветовое пространство : YUVСубдискретизация насыщенности : 4:2:0Битовая глубина : 8 битТип развёртки : ПрогрессивнаяПорядок развёртки : Верхнее поле первоеМетод сжатия : С потерямиВременной код первого кадра : 00:00:00:00Оригинал временного кода : Group of pictures header
ТекстИдентификатор : 189 (0xBD)-32 (0x20)Формат : RLEФормат/Информация : Run-length encodingРежим смешивания : DVD-Video
Меню
ОбщееПолное имя : L:\Monar.ru\Видео\Документальные фильмы\История России и мира\Княгиня Тенишева или в поисках утраченного образа\VIDEO_TS\VTS_01_0.BUPФормат : DVD VideoПрофиль формата : ProgramРазмер файла : 32,0 КбайтПродолжительность : 26 м.Режим общего битрейта : ПеременныйОбщий поток : 166 бит/сек
ВидеоИдентификатор : 224 (0xE0)Формат : MPEG VideoВерсия формата : Version 2Продолжительность : 26 м.Вид битрейта : ПеременныйШирина : 720 пикселейВысота : 576 пикселейСоотношение сторон : 4:3Частота кадров : 25,000 кадров/секСтандарт вещания : PALМетод сжатия : С потерями
АудиоИдентификатор : 128 (0x80)Формат : AC-3Формат/Информация : Audio Coding 3Продолжительность : 26 м.Каналы : 2 каналаЧастота : 48,0 КГцМетод сжатия : С потерями
МенюПродолжительность : 26 м.00:00:00.000 : Chapter 100:10:00.000 : Chapter 200:20:00.000 : Chapter 3List (Audio) : 0
ОбщееПолное имя : L:\Monar.ru\Видео\Документальные фильмы\История России и мира\Княгиня Тенишева или в поисках утраченного образа\VIDEO_TS\VTS_01_0.IFOФормат : DVD VideoПрофиль формата : ProgramРазмер файла : 32,0 КбайтПродолжительность : 26 м.Режим общего битрейта : ПеременныйОбщий поток : 166 бит/сек
ВидеоИдентификатор : 224 (0xE0)Формат : MPEG VideoВерсия формата : Version 2Продолжительность : 26 м.Вид битрейта : ПеременныйШирина : 720 пикселейВысота : 576 пикселейСоотношение сторон : 4:3Частота кадров : 25,000 кадров/секСтандарт вещания : PALМетод сжатия : С потерями
АудиоИдентификатор : 128 (0x80)Формат : AC-3Формат/Информация : Audio Coding 3Продолжительность : 26 м.Каналы : 2 каналаЧастота : 48,0 КГцМетод сжатия : С потерями
МенюПродолжительность : 26 м.00:00:00.000 : Chapter 100:10:00.000 : Chapter 200:20:00.000 : Chapter 3List (Audio) : 0
ОбщееПолное имя : L:\Monar.ru\Видео\Документальные фильмы\История России и мира\Княгиня Тенишева или в поисках утраченного образа\VIDEO_TS\VTS_01_1.VOBФормат : MPEG-PSРазмер файла : 931 МбайтПродолжительность : 36 с.Режим общего битрейта : ПеременныйОбщий поток : 212 Мбит/сек
ВидеоИдентификатор : 224 (0xE0)Формат : MPEG VideoВерсия формата : Version 2Профиль формата : Main@MainПараметр BVOP формата : ДаПараметр матрицы формата : ВыборочнаяПараметр GOP формата : VariableПродолжительность : 36 с.Вид битрейта : ПеременныйБитрейт : 207 Мбит/секМаксимальный битрейт : 9500 Кбит/секШирина : 720 пикселейВысота : 576 пикселейСоотношение сторон : 4:3Частота кадров : 25,000 кадров/секСтандарт вещания : PALЦветовое пространство : YUVСубдискретизация насыщенности : 4:2:0Битовая глубина : 8 битТип развёртки : ЧересстрочнаяПорядок развёртки : Верхнее поле первоеМетод сжатия : С потерямиБит/(Пиксели*Кадры) : 20.000Временной код первого кадра : 00:00:00:00Оригинал временного кода : Group of pictures headerРазмер потока : 912 Мбайт (98%)
АудиоИдентификатор : 189 (0xBD)-128 (0x80)Формат : AC-3Формат/Информация : Audio Coding 3Расширение режима : CM (complete main)Параметр Endianness формата : BigРежим смешивания : DVD-VideoПродолжительность : 36 с.Вид битрейта : ПостоянныйБитрейт : 256 Кбит/секКаналы : 2 каналаРасположение каналов : Front: L RЧастота : 48,0 КГцБитовая глубина : 16 битМетод сжатия : С потерямиЗадержка видео : -120 мс.Размер потока : 1,13 Мбайт (0%)
Меню
ОбщееПолное имя : L:\Monar.ru\Видео\Документальные фильмы\История России и мира\Княгиня Тенишева или в поисках утраченного образа\VIDEO_TS\VTS_02_0.BUPФормат : DVD VideoПрофиль формата : ProgramРазмер файла : 32,0 КбайтПродолжительность : 27 м.Режим общего битрейта : ПеременныйОбщий поток : 159 бит/сек
ВидеоИдентификатор : 224 (0xE0)Формат : MPEG VideoВерсия формата : Version 2Продолжительность : 27 м.Вид битрейта : ПеременныйШирина : 720 пикселейВысота : 576 пикселейСоотношение сторон : 4:3Частота кадров : 25,000 кадров/секСтандарт вещания : PALМетод сжатия : С потерями
АудиоИдентификатор : 128 (0x80)Формат : AC-3Формат/Информация : Audio Coding 3Продолжительность : 27 м.Каналы : 2 каналаЧастота : 48,0 КГцМетод сжатия : С потерями
МенюПродолжительность : 27 м.00:00:00.000 : Chapter 100:10:00.000 : Chapter 200:20:00.000 : Chapter 3List (Audio) : 0
ОбщееПолное имя : L:\Monar.ru\Видео\Документальные фильмы\История России и мира\Княгиня Тенишева или в поисках утраченного образа\VIDEO_TS\VTS_02_0.IFOФормат : DVD VideoПрофиль формата : ProgramРазмер файла : 32,0 КбайтПродолжительность : 27 м.Режим общего битрейта : ПеременныйОбщий поток : 159 бит/сек
ВидеоИдентификатор : 224 (0xE0)Формат : MPEG VideoВерсия формата : Version 2Продолжительность : 27 м.Вид битрейта : ПеременныйШирина : 720 пикселейВысота : 576 пикселейСоотношение сторон : 4:3Частота кадров : 25,000 кадров/секСтандарт вещания : PALМетод сжатия : С потерями
АудиоИдентификатор : 128 (0x80)Формат : AC-3Формат/Информация : Audio Coding 3Продолжительность : 27 м.Каналы : 2 каналаЧастота : 48,0 КГцМетод сжатия : С потерями
МенюПродолжительность : 27 м.00:00:00.000 : Chapter 100:10:00.000 : Chapter 200:20:00.000 : Chapter 3List (Audio) : 0
ОбщееПолное имя : L:\Monar.ru\Видео\Документальные фильмы\История России и мира\Княгиня Тенишева или в поисках утраченного образа\VIDEO_TS\VTS_02_1.VOBФормат : MPEG-PSРазмер файла : 973 МбайтПродолжительность : 40 с.Режим общего битрейта : ПеременныйОбщий поток : 203 Мбит/сек
ВидеоИдентификатор : 224 (0xE0)Формат : MPEG VideoВерсия формата : Version 2Профиль формата : Main@MainПараметр BVOP формата : ДаПараметр матрицы формата : ВыборочнаяПараметр GOP формата : VariableПродолжительность : 40 с.Вид битрейта : ПеременныйБитрейт : 199 Мбит/секМаксимальный битрейт : 9500 Кбит/секШирина : 720 пикселейВысота : 576 пикселейСоотношение сторон : 4:3Частота кадров : 25,000 кадров/секСтандарт вещания : PALЦветовое пространство : YUVСубдискретизация насыщенности : 4:2:0Битовая глубина : 8 битТип развёртки : ЧересстрочнаяПорядок развёртки : Верхнее поле первоеМетод сжатия : С потерямиБит/(Пиксели*Кадры) : 19.154Временной код первого кадра : 00:00:00:00Оригинал временного кода : Group of pictures headerРазмер потока : 953 Мбайт (98%)
АудиоИдентификатор : 189 (0xBD)-128 (0x80)Формат : AC-3Формат/Информация : Audio Coding 3Расширение режима : CM (complete main)Параметр Endianness формата : BigРежим смешивания : DVD-VideoПродолжительность : 40 с.Вид битрейта : ПостоянныйБитрейт : 256 Кбит/секКаналы : 2 каналаРасположение каналов : Front: L RЧастота : 48,0 КГцБитовая глубина : 16 битМетод сжатия : С потерямиЗадержка видео : -120 мс.Размер потока : 1,23 Мбайт (0%)
Меню
ОбщееПолное имя : L:\Monar.ru\Видео\Документальные фильмы\История России и мира\Княгиня Тенишева или в поисках утраченного образа\VIDEO_TS\VTS_03_0.BUPФормат : DVD VideoПрофиль формата : ProgramРазмер файла : 32,0 КбайтПродолжительность : 27 м.Режим общего битрейта : ПеременныйОбщий поток : 157 бит/сек
ВидеоИдентификатор : 224 (0xE0)Формат : MPEG VideoВерсия формата : Version 2Продолжительность : 27 м.Вид битрейта : ПеременныйШирина : 720 пикселейВысота : 576 пикселейСоотношение сторон : 4:3Частота кадров : 25,000 кадров/секСтандарт вещания : PALМетод сжатия : С потерями
АудиоИдентификатор : 128 (0x80)Формат : AC-3Формат/Информация : Audio Coding 3Продолжительность : 27 м.Каналы : 2 каналаЧастота : 48,0 КГцМетод сжатия : С потерями
МенюПродолжительность : 27 м.00:00:00.000 : Chapter 100:10:00.000 : Chapter 200:20:00.000 : Chapter 3List (Audio) : 0
ОбщееПолное имя : L:\Monar.ru\Видео\Документальные фильмы\История России и мира\Княгиня Тенишева или в поисках утраченного образа\VIDEO_TS\VTS_03_0.IFOФормат : DVD VideoПрофиль формата : ProgramРазмер файла : 32,0 КбайтПродолжительность : 27 м.Режим общего битрейта : ПеременныйОбщий поток : 157 бит/сек
ВидеоИдентификатор : 224 (0xE0)Формат : MPEG VideoВерсия формата : Version 2Продолжительность : 27 м.Вид битрейта : ПеременныйШирина : 720 пикселейВысота : 576 пикселейСоотношение сторон : 4:3Частота кадров : 25,000 кадров/секСтандарт вещания : PALМетод сжатия : С потерями
АудиоИдентификатор : 128 (0x80)Формат : AC-3Формат/Информация : Audio Coding 3Продолжительность : 27 м.Каналы : 2 каналаЧастота : 48,0 КГцМетод сжатия : С потерями
МенюПродолжительность : 27 м.00:00:00.000 : Chapter 100:10:00.000 : Chapter 200:20:00.000 : Chapter 3List (Audio) : 0
ОбщееПолное имя : L:\Monar.ru\Видео\Документальные фильмы\История России и мира\Княгиня Тенишева или в поисках утраченного образа\VIDEO_TS\VTS_03_1.VOBФормат : MPEG-PSРазмер файла : 973 МбайтПродолжительность : 23 с.Режим общего битрейта : ПеременныйОбщий поток : 348 Мбит/сек
ВидеоИдентификатор : 224 (0xE0)Формат : MPEG VideoВерсия формата : Version 2Профиль формата : Main@MainПараметр BVOP формата : ДаПараметр матрицы формата : ВыборочнаяПараметр GOP формата : M=3, N=12Продолжительность : 23 с.Вид битрейта : ПеременныйБитрейт : 341 Мбит/секМаксимальный битрейт : 9500 Кбит/секШирина : 720 пикселейВысота : 576 пикселейСоотношение сторон : 4:3Частота кадров : 25,000 кадров/секСтандарт вещания : PALЦветовое пространство : YUVСубдискретизация насыщенности : 4:2:0Битовая глубина : 8 битТип развёртки : ЧересстрочнаяПорядок развёртки : Верхнее поле первоеМетод сжатия : С потерямиБит/(Пиксели*Кадры) : 32.903Временной код первого кадра : 00:00:00:00Оригинал временного кода : Group of pictures headerРазмер потока : 953 Мбайт (98%)
АудиоИдентификатор : 189 (0xBD)-128 (0x80)Формат : AC-3Формат/Информация : Audio Coding 3Расширение режима : CM (complete main)Параметр Endianness формата : BigРежим смешивания : DVD-VideoПродолжительность : 23 с.Вид битрейта : ПостоянныйБитрейт : 256 Кбит/секКаналы : 2 каналаРасположение каналов : Front: L RЧастота : 48,0 КГцБитовая глубина : 16 битМетод сжатия : С потерямиЗадержка видео : -120 мс.Размер потока : 732 Кбайт (0%)
Меню

DVDInfo

Title: Княгиня Тенишева или в поисках утраченного образаSize: 2.81 Gb ( 2 947 220,00 KBytes ) - DVD-5Enabled regions: 1, 2, 3, 4, 5, 6
VTS_01 : Play Length: 00:26:15 Video: PAL 4:3 (720x576) VBR Audio: Not specified (Dolby AC3, 2 ch)
VTS_02 : Play Length: 00:27:30 Video: PAL 4:3 (720x576) VBR Audio: Not specified (Dolby AC3, 2 ch)
VTS_03 : Play Length: 00:27:50 Video: PAL 4:3 (720x576) VBR Audio: Not specified (Dolby AC3, 2 ch)
* Menus Information *
VIDEO_TS MenuVideo: PAL 4:3 (720x576) VBRLanguage Unit : Title Menu
VTS_01 MenuVideo: NTSC 4:3 (720x480) VBR Auto Pan&Scan, Auto LetterboxedLanguage Unit : Root Menu
VTS_02 MenuVideo: NTSC 4:3 (720x480) VBR Auto Pan&Scan, Auto LetterboxedLanguage Unit : Root Menu
VTS_03 MenuVideo: NTSC 4:3 (720x480) VBR Auto Pan&Scan, Auto LetterboxedLanguage Unit : Root Menu

Скриншот меню

Скриншоты

Анаморфированные скриншоты

Обложка и диск

[Profile]  [PM] 
Display posts:    
Reply to topic

Current time is: 14-Oct 12:57

All times are UTC + 2



You cannot post new topics in this forum
You cannot reply to topics in this forum
You cannot edit your posts in this forum
You cannot delete your posts in this forum
You cannot vote in polls in this forum
You cannot attach files in this forum
You cannot download files in this forum