Кремль - 9: Дворцовые тайны времен Леонида Брежнева (Максим Иванников) [2002, Документальный, исторический, DVD5]

Reply to topic
 
Author
Message

Atila ®

Gender: Unknown

Longevity: 7 years 4 months

Posts: 2496

Reputation: 0 [+] [-]

Atila · Post 04-Jun-2014 03:38

[Quote] 

Кремль - 9: Дворцовые тайны времен Леонида Брежнева
Год выпуска: 2002
Страна: Россия
Студия: Телекомпания Останкино
Жанр: Документальный, исторический
Продолжительность: 01:17:56
Перевод: Не требуется
Русские субтитры: нет
Режиссер: Максим Иванников
Описание: Многосерийный документальный сериал "Кремль-9" рассказывает о неизвестной стороне известных событий в истории России. Специально для этого сериала ФСО (Федеральная служба охраны) сняла гриф "секретно" с многих важнейших документов. Название сериала "Кремль-9" не случайно: "девятка" - это бывшее 9-ое Управление КГБ СССР, которое обеспечивало охрану и безопасность высших должностных лиц страны. Все фильмы основаны на подлинных архивных документах спецслужб, уникальных кино-, видео- и фотодокументах, а также свидетельствах очевидцев описываемых событий.
Первая серия фильма повествует о том, кто и как охранял Брежнева, о его характере и привычках, об отношениях с детьми и родственниками, о системе сдержек и противовесов, созданной Первым секретарем ЦК КПСС. Также в 1-й серии рассказывается о покушении на Брежнева и о начинающейся болезни генсека.
Вторая серия фильма рассказывает о том, как вначале незаметно происходил слом здоровья Генерального секретаря. О главной причине этого слома - снотворных препаратах - долгое время никто ничего не знал. Генерал-майор КГБ Владимир Медведев рассказывает о том, как и с чьей помощью, Брежнев попал в зависимость от снотворного, о роковой роли врача и медсестры и участии товарищей по партии в формировании этой зависимости...
Доп. информация: Извлечено DVDFab 9.0.5.5 с копии образа оригинального диска. Каких либо изменений не производилось.
Бонусы: Не имеется
Меню: Имеется, на русском языке, анимированное, озвученное
Сэмпл: http://multi-up.com/895572
Тип релиза: DVD5
Контейнер: DVD-Video
Видео: MPEG-2, PAL, 4:3 (720x576), VBR ~3910-6018Кбит/сек (9000), 25,000 кадров/сек
Аудио: Русский, PCM, 2 канала, 48,0 КГц, 1536 Кбит/сек

MediaInfo

Общее
Полное имя                               : G:\Video\BRESHNEV\VIDEO_TS\VIDEO_TS.BUPФормат                                   : DVD VideoПрофиль формата                          : MenuРазмер файла                             : 26,0 КбайтРежим общего битрейта                    : Переменный
ВидеоИдентификатор : 224 (0xE0)Формат : MPEG VideoВерсия формата : Version 2Вид битрейта : ПеременныйШирина : 720 пикселейВысота : 576 пикселейСоотношение сторон : 4:3Частота кадров : 25,000 кадров/секСтандарт вещания : PALМетод сжатия : С потерями
АудиоФормат : AC-3Формат/Информация : Audio Coding 3Каналы : 2 каналаЧастота : 48,0 КГцМетод сжатия : С потерями
ТекстФормат : RLEФормат/Информация : Run-length encodingБитовая глубина : 2 бит
ОбщееПолное имя : G:\Video\BRESHNEV\VIDEO_TS\VIDEO_TS.IFOФормат : DVD VideoПрофиль формата : MenuРазмер файла : 26,0 КбайтРежим общего битрейта : Переменный
ВидеоИдентификатор : 224 (0xE0)Формат : MPEG VideoВерсия формата : Version 2Вид битрейта : ПеременныйШирина : 720 пикселейВысота : 576 пикселейСоотношение сторон : 4:3Частота кадров : 25,000 кадров/секСтандарт вещания : PALМетод сжатия : С потерями
АудиоФормат : AC-3Формат/Информация : Audio Coding 3Каналы : 2 каналаЧастота : 48,0 КГцМетод сжатия : С потерями
ТекстФормат : RLEФормат/Информация : Run-length encodingБитовая глубина : 2 бит
ОбщееПолное имя : G:\Video\BRESHNEV\VIDEO_TS\VIDEO_TS.VOBФормат : MPEG-PSРазмер файла : 35,1 МбайтПродолжительность : 30 с.Режим общего битрейта : ПеременныйОбщий поток : 9805 Кбит/сек
ВидеоИдентификатор : 224 (0xE0)Формат : MPEG VideoВерсия формата : Version 2Профиль формата : Main@MainПараметр BVOP формата : ДаПараметр матрицы формата : По умолчаниюПараметр GOP формата : M=3, N=12Продолжительность : 30 с.Вид битрейта : ПеременныйБитрейт : 9354 Кбит/секМаксимальный битрейт : 8000 Кбит/секШирина : 720 пикселейВысота : 576 пикселейСоотношение сторон : 4:3Частота кадров : 25,000 кадров/секСтандарт вещания : PALЦветовое пространство : YUVСубдискретизация насыщенности : 4:2:0Битовая глубина : 8 битТип развёртки : ПрогрессивнаяМетод сжатия : С потерямиБит/(Пиксели*Кадры) : 0.902TimeCode_FirstFrame : 00:00:00:00TimeCode_Source : Group of pictures headerРазмер потока : 33,5 Мбайт (95%)Основные цвета : BT.601 PALХарактеристики трансфера : BT.470 System B, BT.470 System GКоэффициенты матрицы : BT.601
АудиоИдентификатор : 189 (0xBD)-128 (0x80)Формат : AC-3Формат/Информация : Audio Coding 3Расширение режима : CM (complete main)Параметр Endianness формата : BigРежим смешивания : DVD-VideoПродолжительность : 29 с.Вид битрейта : ПостоянныйБитрейт : 256 Кбит/секКаналы : 2 каналаРасположение каналов : Front: L RЧастота : 48,0 КГцБитовая глубина : 16 битМетод сжатия : С потерямиРазмер потока : 937 Кбайт (3%)
ТекстИдентификатор : 189 (0xBD)-32 (0x20)Формат : RLEФормат/Информация : Run-length encodingРежим смешивания : DVD-Video
Меню
ОбщееПолное имя : G:\Video\BRESHNEV\VIDEO_TS\VTS_01_0.BUPФормат : DVD VideoПрофиль формата : ProgramРазмер файла : 18,0 КбайтПродолжительность : 40 с.Режим общего битрейта : ПеременныйОбщий поток : 3672 бит/сек
ВидеоИдентификатор : 224 (0xE0)Формат : MPEG VideoВерсия формата : Version 2Продолжительность : 40 с.Вид битрейта : ПеременныйШирина : 720 пикселейВысота : 576 пикселейСоотношение сторон : 4:3Частота кадров : 25,000 кадров/секСтандарт вещания : PALМетод сжатия : С потерями
АудиоИдентификатор : 128 (0x80)Формат : AC-3Формат/Информация : Audio Coding 3Продолжительность : 40 с.Каналы : 2 каналаЧастота : 48,0 КГцМетод сжатия : С потерями
МенюПродолжительность : 40 с.00:00:00.000 : Chapter 1List (Audio) : 0
ОбщееПолное имя : G:\Video\BRESHNEV\VIDEO_TS\VTS_01_0.IFOФормат : DVD VideoПрофиль формата : ProgramРазмер файла : 18,0 КбайтПродолжительность : 40 с.Режим общего битрейта : ПеременныйОбщий поток : 3672 бит/сек
ВидеоИдентификатор : 224 (0xE0)Формат : MPEG VideoВерсия формата : Version 2Продолжительность : 40 с.Вид битрейта : ПеременныйШирина : 720 пикселейВысота : 576 пикселейСоотношение сторон : 4:3Частота кадров : 25,000 кадров/секСтандарт вещания : PALМетод сжатия : С потерями
АудиоИдентификатор : 128 (0x80)Формат : AC-3Формат/Информация : Audio Coding 3Продолжительность : 40 с.Каналы : 2 каналаЧастота : 48,0 КГцМетод сжатия : С потерями
МенюПродолжительность : 40 с.00:00:00.000 : Chapter 1List (Audio) : 0
ОбщееПолное имя : G:\Video\BRESHNEV\VIDEO_TS\VTS_01_1.VOBФормат : MPEG-PSРазмер файла : 20,3 МбайтПродолжительность : 40 с.Режим общего битрейта : ПеременныйОбщий поток : 4251 Кбит/сек
ВидеоИдентификатор : 224 (0xE0)Формат : MPEG VideoВерсия формата : Version 2Профиль формата : Main@MainПараметр BVOP формата : ДаПараметр матрицы формата : По умолчаниюПараметр GOP формата : M=3, N=12Продолжительность : 40 с.Вид битрейта : ПеременныйБитрейт : 3910 Кбит/секМаксимальный битрейт : 5000 Кбит/секШирина : 720 пикселейВысота : 576 пикселейСоотношение сторон : 4:3Частота кадров : 25,000 кадров/секСтандарт вещания : PALЦветовое пространство : YUVСубдискретизация насыщенности : 4:2:0Битовая глубина : 8 битТип развёртки : ПрогрессивнаяМетод сжатия : С потерямиБит/(Пиксели*Кадры) : 0.377TimeCode_FirstFrame : 00:00:00:00TimeCode_Source : Group of pictures headerРазмер потока : 18,7 Мбайт (92%)Основные цвета : BT.601 PALХарактеристики трансфера : BT.470 System B, BT.470 System GКоэффициенты матрицы : BT.601
АудиоИдентификатор : 189 (0xBD)-128 (0x80)Формат : AC-3Формат/Информация : Audio Coding 3Расширение режима : CM (complete main)Параметр Endianness формата : BigРежим смешивания : DVD-VideoПродолжительность : 39 с.Вид битрейта : ПостоянныйБитрейт : 256 Кбит/секКаналы : 2 каналаРасположение каналов : Front: L RЧастота : 48,0 КГцБитовая глубина : 16 битМетод сжатия : С потерямиРазмер потока : 1,22 Мбайт (6%)
Меню
ОбщееПолное имя : G:\Video\BRESHNEV\VIDEO_TS\VTS_02_0.BUPФормат : DVD VideoПрофиль формата : ProgramРазмер файла : 72,0 КбайтПродолжительность : 19 м.Режим общего битрейта : ПеременныйОбщий поток : 493 бит/сек
ВидеоИдентификатор : 224 (0xE0)Формат : MPEG VideoВерсия формата : Version 2Продолжительность : 19 м.Вид битрейта : ПеременныйШирина : 720 пикселейВысота : 576 пикселейСоотношение сторон : 4:3Частота кадров : 25,000 кадров/секСтандарт вещания : PALМетод сжатия : С потерями
АудиоИдентификатор : 0 (0x0)Формат : PCMПродолжительность : 19 м.Каналы : 2 каналаЧастота : 48,0 КГц
Меню #1Продолжительность : 18 м.00:00:00.000 : Chapter 100:00:40.320 : Chapter 200:03:58.880 : Chapter 300:07:29.560 : Chapter 400:11:03.480 : Chapter 500:14:45.000 : Chapter 600:17:08.440 : Chapter 700:18:50.880 : Chapter 8List (Audio) : 0
Меню #2Продолжительность : 19 м.00:00:00.000 : Chapter 100:03:23.080 : Chapter 200:07:22.680 : Chapter 300:10:47.280 : Chapter 400:14:44.000 : Chapter 500:17:58.760 : Chapter 6List (Audio) : 0
Меню #3Продолжительность : 19 м.00:00:00.000 : Chapter 100:00:30.000 : Chapter 200:00:31.040 : Chapter 300:00:53.040 : Chapter 400:01:23.040 : Chapter 500:01:29.040 : Chapter 600:01:52.040 : Chapter 700:02:29.040 : Chapter 800:02:30.120 : Chapter 9List (Audio) : 0
ОбщееПолное имя : G:\Video\BRESHNEV\VIDEO_TS\VTS_02_0.IFOФормат : DVD VideoПрофиль формата : ProgramРазмер файла : 72,0 КбайтПродолжительность : 19 м.Режим общего битрейта : ПеременныйОбщий поток : 493 бит/сек
ВидеоИдентификатор : 224 (0xE0)Формат : MPEG VideoВерсия формата : Version 2Продолжительность : 19 м.Вид битрейта : ПеременныйШирина : 720 пикселейВысота : 576 пикселейСоотношение сторон : 4:3Частота кадров : 25,000 кадров/секСтандарт вещания : PALМетод сжатия : С потерями
АудиоИдентификатор : 0 (0x0)Формат : PCMПродолжительность : 19 м.Каналы : 2 каналаЧастота : 48,0 КГц
Меню #1Продолжительность : 18 м.00:00:00.000 : Chapter 100:00:40.320 : Chapter 200:03:58.880 : Chapter 300:07:29.560 : Chapter 400:11:03.480 : Chapter 500:14:45.000 : Chapter 600:17:08.440 : Chapter 700:18:50.880 : Chapter 8List (Audio) : 0
Меню #2Продолжительность : 19 м.00:00:00.000 : Chapter 100:03:23.080 : Chapter 200:07:22.680 : Chapter 300:10:47.280 : Chapter 400:14:44.000 : Chapter 500:17:58.760 : Chapter 6List (Audio) : 0
Меню #3Продолжительность : 19 м.00:00:00.000 : Chapter 100:00:30.000 : Chapter 200:00:31.040 : Chapter 300:00:53.040 : Chapter 400:01:23.040 : Chapter 500:01:29.040 : Chapter 600:01:52.040 : Chapter 700:02:29.040 : Chapter 800:02:30.120 : Chapter 9List (Audio) : 0
ОбщееПолное имя : G:\Video\BRESHNEV\VIDEO_TS\VTS_02_1.VOBФормат : MPEG-PSРазмер файла : 1024 МбайтПродолжительность : 18 м.Режим общего битрейта : ПеременныйОбщий поток : 7708 Кбит/сек
ВидеоИдентификатор : 224 (0xE0)Формат : MPEG VideoВерсия формата : Version 2Профиль формата : Main@MainПараметр BVOP формата : ДаПараметр матрицы формата : ВыборочнаяПараметр GOP формата : M=3, N=15Продолжительность : 18 м.Вид битрейта : ПеременныйБитрейт : 6018 Кбит/секМаксимальный битрейт : 9000 Кбит/секШирина : 720 пикселейВысота : 576 пикселейСоотношение сторон : 4:3Частота кадров : 25,000 кадров/секСтандарт вещания : PALЦветовое пространство : YUVСубдискретизация насыщенности : 4:2:0Битовая глубина : 8 битТип развёртки : ЧересстрочнаяПорядок развёртки : Верхнее поле первоеМетод сжатия : С потерямиБит/(Пиксели*Кадры) : 0.580TimeCode_FirstFrame : 00:00:00:00TimeCode_Source : Group of pictures headerРазмер потока : 800 Мбайт (78%)
АудиоИдентификатор : 189 (0xBD)-160 (0xA0)Формат : PCMПараметр Endianness формата : BigПараметр Sign формата : SignedРежим смешивания : DVD-VideoПродолжительность : 18 м.Вид битрейта : ПостоянныйБитрейт : 1536 Кбит/секКаналы : 2 каналаЧастота : 48,0 КГцБитовая глубина : 16 битРазмер потока : 204 Мбайт (20%)
Меню
ОбщееПолное имя : G:\Video\BRESHNEV\VIDEO_TS\VTS_02_2.VOBФормат : MPEG-PSРазмер файла : 1024 МбайтРежим общего битрейта : Переменный
ВидеоИдентификатор : 224 (0xE0)Формат : MPEG VideoВерсия формата : Version 2Профиль формата : Main@MainПараметр BVOP формата : ДаПараметр матрицы формата : ВыборочнаяПараметр GOP формата : M=3, N=15Вид битрейта : ПеременныйМаксимальный битрейт : 9000 Кбит/секШирина : 720 пикселейВысота : 576 пикселейСоотношение сторон : 4:3Частота кадров : 25,000 кадров/секСтандарт вещания : PALЦветовое пространство : YUVСубдискретизация насыщенности : 4:2:0Битовая глубина : 8 битТип развёртки : ЧересстрочнаяПорядок развёртки : Верхнее поле первоеМетод сжатия : С потерямиTimeCode_FirstFrame : 00:18:34:17TimeCode_Source : Group of pictures header
АудиоИдентификатор : 189 (0xBD)-160 (0xA0)Формат : PCMПараметр Endianness формата : BigПараметр Sign формата : SignedРежим смешивания : DVD-VideoВид битрейта : ПостоянныйБитрейт : 1536 Кбит/секКаналы : 2 каналаЧастота : 48,0 КГцБитовая глубина : 16 битЗадержка видео : -539 мс.
Меню
ОбщееПолное имя : G:\Video\BRESHNEV\VIDEO_TS\VTS_02_3.VOBФормат : MPEG-PSРазмер файла : 169 МбайтПродолжительность : 3 м. 4 с.Режим общего битрейта : ПеременныйОбщий поток : 7674 Кбит/сек
ВидеоИдентификатор : 224 (0xE0)Формат : MPEG VideoВерсия формата : Version 2Профиль формата : Main@MainПараметр BVOP формата : ДаПараметр матрицы формата : ВыборочнаяПараметр GOP формата : M=3, N=15Продолжительность : 3 м. 4 с.Вид битрейта : ПеременныйБитрейт : 5986 Кбит/секМаксимальный битрейт : 9000 Кбит/секШирина : 720 пикселейВысота : 576 пикселейСоотношение сторон : 4:3Частота кадров : 25,000 кадров/секСтандарт вещания : PALЦветовое пространство : YUVСубдискретизация насыщенности : 4:2:0Битовая глубина : 8 битТип развёртки : ЧересстрочнаяПорядок развёртки : Верхнее поле первоеМетод сжатия : С потерямиБит/(Пиксели*Кадры) : 0.577TimeCode_FirstFrame : 00:16:22:02TimeCode_Source : Group of pictures headerРазмер потока : 132 Мбайт (78%)
АудиоИдентификатор : 189 (0xBD)-160 (0xA0)Формат : PCMПараметр Endianness формата : BigПараметр Sign формата : SignedРежим смешивания : DVD-VideoПродолжительность : 3 м. 4 с.Вид битрейта : ПостоянныйБитрейт : 1536 Кбит/секКаналы : 2 каналаЧастота : 48,0 КГцБитовая глубина : 16 битЗадержка видео : -415 мс.Размер потока : 33,9 Мбайт (20%)
Меню

DVDInfo

Title: BRESHNEV
Size: 2.22 Gb ( 2 327 306,00 KBytes ) - DVD-5
Enabled regions: 1, 2, 3, 4, 5, 6, 7, 8
VTS_01 :
Play Length: 00:00:40
Video: PAL 4:3 (720x576) VBR
Audio:
Not specified (Dolby AC3, 2 ch)
VTS_02 :
Play Length: 00:18:51+00:19:57+00:19:40+00:19:26
Video: PAL 4:3 (720x576) VBR
Audio:
Not specified (LinearPCM, 2 ch)
* Menus Information *
VIDEO_TS Menu
Video:
PAL 4:3 (720x576) VBR
Audio:
Not specified (Dolby AC3, 2 ch)
Language Unit :
Title Menu
VTS_01 Menu
Video:
PAL 4:3 (720x576) VBR
Auto Pan&Scan, Auto Letterboxed
Audio:
Not specified (Dolby AC3, 1 ch)
Language Unit :
Root Menu
VTS_02 Menu
Video:
PAL 4:3 (720x576) VBR
Auto Pan&Scan, Auto Letterboxed
Audio:
Not specified (Dolby AC3, 1 ch)
Language Unit :
Root Menu

Скриншоты меню

Скриншоты

Скриншоты с учетом анаморфирования

Мои раздачи из серии "Кремль - 9":
Кремль - 9: Лаврентий Берия: Рывок к власти. От ареста до расстрела
Кремль – 9: Заговор. Хрущев
[Profile]  [PM] 
Display posts:    
Reply to topic

Current time is: 14-Oct 12:59

All times are UTC + 2



You cannot post new topics in this forum
You cannot reply to topics in this forum
You cannot edit your posts in this forum
You cannot delete your posts in this forum
You cannot vote in polls in this forum
You cannot attach files in this forum
You cannot download files in this forum