Человек и Божии творения.Фильм "Ледин" (Элла Короленко, Владимир Петухов) [2005, Документальный, DVD5]

Reply to topic
 
Author
Message

Atila ®

Gender: Unknown

Longevity: 7 years 5 months

Posts: 2504

Reputation: 0 [+] [-]

Atila · Post 04-Jun-2014 03:39

[Quote] 

Человек и Божии творения.Фильм "Ледин"
Год выпуска: 2005
Страна: Россия
Жанр: Документальный
Режиссер / Телекомпания: Элла Короленко, Владимир Петухов / Киностудия Леннаучфильм
Продолжительность: 00:44:00
Перевод: Не требуется
Автор сценария: Тамара Занько Элла
Режиссеры: Короленко, Владимир Петухов Владимир
Оператор: Петухов Эдуард
Звукооператор: Манукян Владимир
Монтаж: Локотко Андрей
Цветокоррекция: Гладких Татьяна
Редактор: Анциферова Наталья
Директор: Каменецкая Татьяна Маслина, Владимир Бажин
Описание: Фильм-портрет оператора, сценариста, режиссера, легендарного человека Юрия Ледина, более 30 лет отдавшего съемкам научно-популярных картин о диких животных Севера.
Ледину многое удалось сделать впервые, например, снять белого медведя в естественных условия под водой, записать «общение» еще не вылупившихся из яйца птенцов с высиживающих их мамой... Для ученых - это бесценный научный материал, для зрителей - захватывающее зрелище.
Уникальность фильмов Ледина еще и в том, что они, как дети, вынашивались и рождались в семье. Каждый фильм это около полугода, проведенных в Арктике, на островах в Ледовитом и Тихом океанах. Несмотря на трудности киноэкспедиции для жены Людмилы и их дочери Вероники многие годы были единственной и органичной формой существования в этом мире.
Фильм Ледин не только о высочайшем профессионале, оставившем свой след в искусстве кино, скорее - об искусстве жить увлеченно, щедро одаривая человечностью, с любовью, способностью брать на себя ответственность, умением раскрыться в полную меру своего человеческого призвания. Удается это немногим. Юрий Янович Ледин смог.
Съемки фильма проходили в Берлине, Петербурге и его окрестностях.
Сэмпл: http://yadi.sk/d/FN10I6uE7xoHQ
качество: DVD5
формат: DVD Video
Видео: MPEG-2, PAL 4:3 720x576@768x576, 4:3, 25,000 fps, ~6500 kbps
Аудио: MP2 2.0, 48,0 КГц, 256 kbps
Примечание : Сканы диска и обложки в папке полиграфия

DVDInfo

Title: Человек и Божии творения.Фильм Ледин (2005) DVD5
Size: 2.12 Gb ( 2 220 820,00 KBytes ) - DVD-5
Enabled regions: 1, 2, 3, 4, 5, 6, 7, 8
VTS_01 :
Play Length: 00:44:00
Video: PAL 4:3 (720x576) VBR
Audio:
Not specified (MPEG1, 2 ch)
* Menus Information *
VIDEO_TS Menu
Video:
NTSC 4:3 (720x480) VBR
Auto Pan&Scan, Auto Letterboxed
Language Unit :
VTS_01 Menu
Video:
NTSC 4:3 (720x480) VBR
Auto Pan&Scan, Auto Letterboxed
Language Unit :
Subpicture Menu
Angle menu
Language Unit :
Subpicture Menu
Angle menu
Language Unit :
Subpicture Menu
Angle menu
Language Unit :
Subpicture Menu
Angle menu
Language Unit :
Subpicture Menu
Angle menu

MediaInfo

Общее
Полное имя : D:\Фильмы\Документальные фильмы\Человек и Божии творения.Фильм Ледин (2005)\Человек и Божии творения.Фильм Ледин (2005) DVD5\VIDEO_TS\VTS_01_1.VOB
Формат : MPEG-PS
Размер файла : 1024 Мбайт
Продолжительность : 20 м.
Общий поток : 6889 Кбит/сек
Видео
Идентификатор : 224 (0xE0)
Формат : MPEG Video
Версия формата : Version 2
Профиль формата : Main@Main
Параметр BVOP формата : Да
Параметр матрицы формата : Выборочная
Параметр GOP формата : Variable
Продолжительность : 20 м.
Битрейт : 6500 Кбит/сек
Ширина : 720 пикселей
Высота : 576 пикселей
Соотношение сторон : 4:3
Частота кадров : 25,000 кадров/сек
Стандарт вещания : PAL
Цветовое пространство : YUV
Субдискретизация насыщенности : 4:2:0
Битовая глубина : 8 бит
Тип развёртки : Чересстрочная
Порядок развёртки : Нижнее поле первое
Метод сжатия : С потерями
Бит/(Пиксели*Кадры) : 0.627
TimeCode_FirstFrame : 00:00:00:00
TimeCode_Source : Group of pictures header
Размер потока : 966 Мбайт (94%)
Аудио
Идентификатор : 192 (0xC0)
Формат : MPEG Audio
Версия формата : Version 1
Профиль формата : Layer 2
Продолжительность : 20 м.
Вид битрейта : Постоянный
Битрейт : 256 Кбит/сек
Каналы : 2 канала
Частота : 48,0 КГц
Метод сжатия : С потерями
Размер потока : 38,0 Мбайт (4%)

Меню

Отсутствует изначально.

Скриншоты


[Profile]  [PM] 
Display posts:    
Reply to topic

Current time is: 06-Dec 17:55

All times are UTC + 2



You cannot post new topics in this forum
You cannot reply to topics in this forum
You cannot edit your posts in this forum
You cannot delete your posts in this forum
You cannot vote in polls in this forum
You cannot attach files in this forum
You cannot download files in this forum