Тридцатые в цвете / The Thirties in Colour / Серии: 1-4 из 4 (Кристина Лоури / Christina Lowry , Ники Илич / Nicky Illis) [2008, Документальное кино, 2xDVD9]

Reply to topic
 
Author
Message

Atila ®

Gender: Unknown

Longevity: 7 years 4 months

Posts: 2497

Reputation: 0 [+] [-]

Atila · Post 04-Jun-2014 03:39

[Quote] 

Тридцатые в цвете / The Thirties in Colour
Год выпуска: 2008
Страна: Великобритания
Студия: BBC
Жанр: Документальный
Продолжительность: 4 x ~ 00:50:00
Перевод: профессиональный двухголосый (ГТРК Культура)
Русские субтитры: нет
Режиссер: Кристина Лоури / Christina Lowry , Ники Илич / Nicky Illis
Описание:
1930-е годы были ознаменованы появлением первой цветной кинопленки. Впервые операторы-любители получили возможность запечатлеть мир в цвете. Цветная пленка была в то время скорее предметом роскоши, который могли себе позволить только очень богатые люди - из домашних архивов таких людей и родился этот сериал.
1 Серия - На краю света / A World Away
Героиня первой серии - дочь богатого английского финансиста искательница приключений Рози Ньюман. Она одна из первых оценила возможности цветной плёнки. В кадре её путешествие по Индии и Египту. Достаточно высокое общественное положение позволило Рози сделать уникальные кадры с будущей английской королевой Елизаветой II, греческим королём Георгом II, махараджами в Индии и другими высокопоставленными лицами.
2-я серия. - Кругосветка братьев Райт / Wright Around the World
Это рассказ о Гарри Райте, американском промышленнике и предпринимателе-миллионере, чьей страстью были путешествия и киносъёмка. Его четырёхмесячный круиз прошёл по экзотическим местам: Панамский канал, остров Кокос, Маркизские острова, Таити, Папуа Новая Гвинея, Индонезия, Южная Африка. Его брат Боллинг Райт совершил путешествие по Марокко, Канарским островам и Италии. Эти кадры были сняты в то время, когда обеспеченные люди имели возможность избежать Великой депрессии и развлекать себя путешествиями по миру на роскошных кораблях. Однако очень скоро море станет местом военных сражений Второй мировой.

3-я серия. - Американские приключения / Adventures in the Americas

Гарри Райт настолько увлекся документальным кино, что нанял несколько кинооператоров, снимавших для него. Впоследствии Райт демонстрировал фильмы своим друзьям и родным в специально созданном для этих целей домашнем кинотеатре. Среди операторов, работавших на Райта, был антрополог и путешественник Эд Майерс, которому удалось запечатлеть уникальную жизнь закрытых племенных сообществ в Мексике. Сегодня многие из этих племен уже исчезли с лица Земли. Подобные фильмы не приветствовались правительством Мексики, так как показывали реальную жизнь людей. С другой стороны, существовало официальное кино, представлявшее Мексику, как рай для туристов.
4-я серия. - Конец эпохи / End of an Era
Накануне Второй мировой войны мир стремительно менялся. В фильме рассказываются две истории разных семей. В конце тридцатых семья американских евреев-эмигрантов Херц решает навестить своих родственников в Польше. Они едут через Францию, а затем через Германию. В это время в Германии шла антисемитская кампания, что живо отражено в любительских съемках Херцев. В Польше они пытаются уговорить своих родных эмигрировать в Америку, но безуспешно. Все родные Херцев попали во время войны в Освенцим и погибли. Американский еврей-эмигрант адвокат Дэвид состоял в организации, которая занималась переговорами с нацистами о вывозе евреев из Германии. Тех евреев, которых Глику удалось спасти, вывозили в Южную Америку, где им приходилось начинать новую жизнь. Глик сам снимал на камеру этих людей уже в Южной Америке. Также включены уникальные и действительно впечатляющие кадры из домашнего архива Евы Браун, на которых запечатлен Адольф Гитлер со своим окружением в его резиденции.
Меню: есть, английское, статистическое, озвученное
Сэмпл: http://multi-up.com/884732
Тип релиза: 2xDVD9
Контейнер: DVD-Video
DVD 1 (1-2 ~ ~ 00:50:00)
Видео: PAL 16:9 (720x576) VBR, 25 fps, 5485 kbps, 0.529 bit/pixel
Аудио 1: Russian Dolby AC3, 2/0 ch, 192Kbps
Аудио 2: English Dolby AC3, 2/0 ch, 192Kbps

MediaInfo

Format : MPEG-PS
File size : 1 024 MiB
Duration : 23mn 54s
Overall bit rate mode : Variable
Overall bit rate : 5 988 Kbps
Video
ID : 224 (0xE0)
Format : MPEG Video
Format version : Version 2
Format profile : Main@Main
Format settings, BVOP : No
Format settings, Matrix : Custom
Format settings, GOP : Variable
Duration : 23mn 54s
Bit rate mode : Variable
Bit rate : 5 485 Kbps
Maximum bit rate : 9 800 Kbps
Width : 720 pixels
Height : 576 pixels
Display aspect ratio : 16:9
Frame rate : 25.000 fps
Standard : PAL
Color space : YUV
Chroma subsampling : 4:2:0
Bit depth : 8 bits
Scan type : Interlaced
Scan order : Top Field First
Compression mode : Lossy
Bits/(Pixel*Frame) : 0.529
Time code of first frame : 09:59:59:00
Time code source : Group of pictures header
Stream size : 938 MiB (92%)
Audio #1
ID : 189 (0xBD)-128 (0x80)
Format : AC-3
Format/Info : Audio Coding 3
Mode extension : CM (complete main)
Format settings, Endianness : Big
Muxing mode : DVD-Video
Duration : 23mn 54s
Bit rate mode : Constant
Bit rate : 192 Kbps
Channel(s) : 2 channels
Channel positions : Front: L R
Sampling rate : 48.0 KHz
Bit depth : 16 bits
Compression mode : Lossy
Stream size : 32.8 MiB (3%)
Audio #2
ID : 189 (0xBD)-129 (0x81)
Format : AC-3
Format/Info : Audio Coding 3
Mode extension : CM (complete main)
Format settings, Endianness : Big
Muxing mode : DVD-Video
Duration : 23mn 54s
Bit rate mode : Constant
Bit rate : 192 Kbps
Channel(s) : 2 channels
Channel positions : Front: L R
Sampling rate : 48.0 KHz
Bit depth : 16 bits
Compression mode : Lossy
Stream size : 32.8 MiB (3%)
Text
ID : 189 (0xBD)-32 (0x20)
Format : RLE
Format/Info : Run-length encoding
Muxing mode : DVD-Video
Duration : 23mn 46s
Delay relative to video : 4s 920ms
Menu

DVDInfo

Title: Disk_1
Size: 4.46 Gb ( 4 674 506,00 KBytes ) - DVD-9
Enabled regions: 1, 2, 3, 4, 5, 6, 7, 8
VTS_01 :
Play Length: 00:00:00
Video: PAL 16:9 (720x576) VBR, Auto Letterboxed
VTS_02 :
Play Length: 01:40:08+{00:51:01}+{00:49:07}
Video: PAL 16:9 (720x576) VBR, Auto Letterboxed
Audio:
Russian (Dolby AC3, 2 ch)
English (Dolby AC3, 2 ch)
Subtitles:
English

Скриншоты меню

Скриншоты

Скриншоты анаморф.

DVD 2 (3-4 ~ ~ 00:50:00)
Видео: PAL 16:9 (720x576) VBR, 25 fps, 5778 kbps, 0.557 bit/pixel
Аудио 1: Russian Dolby AC3, 2/0 ch, 192Kbps
Аудио 2: English Dolby AC3, 2/0 ch, 192Kbps

MediaInfo

Format : MPEG-PS
File size : 1 024 MiB
Duration : 22mn 46s
Overall bit rate mode : Variable
Overall bit rate : 6 287 Kbps
Video
ID : 224 (0xE0)
Format : MPEG Video
Format version : Version 2
Format profile : Main@Main
Format settings, BVOP : No
Format settings, Matrix : Custom
Format settings, GOP : Variable
Duration : 22mn 46s
Bit rate mode : Variable
Bit rate : 5 778 Kbps
Maximum bit rate : 9 800 Kbps
Width : 720 pixels
Height : 576 pixels
Display aspect ratio : 16:9
Frame rate : 25.000 fps
Standard : PAL
Color space : YUV
Chroma subsampling : 4:2:0
Bit depth : 8 bits
Scan type : Interlaced
Scan order : Top Field First
Compression mode : Lossy
Bits/(Pixel*Frame) : 0.557
Time code of first frame : 09:59:59:00
Time code source : Group of pictures header
Stream size : 941 MiB (92%)
Audio #1
ID : 189 (0xBD)-128 (0x80)
Format : AC-3
Format/Info : Audio Coding 3
Mode extension : CM (complete main)
Format settings, Endianness : Big
Muxing mode : DVD-Video
Duration : 22mn 46s
Bit rate mode : Constant
Bit rate : 192 Kbps
Channel(s) : 2 channels
Channel positions : Front: L R
Sampling rate : 48.0 KHz
Bit depth : 16 bits
Compression mode : Lossy
Stream size : 31.3 MiB (3%)
Audio #2
ID : 189 (0xBD)-129 (0x81)
Format : AC-3
Format/Info : Audio Coding 3
Mode extension : CM (complete main)
Format settings, Endianness : Big
Muxing mode : DVD-Video
Duration : 22mn 46s
Bit rate mode : Constant
Bit rate : 192 Kbps
Channel(s) : 2 channels
Channel positions : Front: L R
Sampling rate : 48.0 KHz
Bit depth : 16 bits
Compression mode : Lossy
Stream size : 31.3 MiB (3%)
Text
ID : 189 (0xBD)-32 (0x20)
Format : RLE
Format/Info : Run-length encoding
Muxing mode : DVD-Video
Duration : 22mn 38s
Delay relative to video : 6s 600ms
Menu

DVDInfo

Title: Disk_2
Size: 4.44 Gb ( 4 659 164,00 KBytes ) - DVD-9
Enabled regions: 1, 2, 3, 4, 5, 6, 7, 8
VTS_01 :
Play Length: 00:00:00
Video: PAL 16:9 (720x576) VBR, Auto Letterboxed
VTS_02 :
Play Length: 01:38:22+{00:49:49}+{00:48:33}
Video: PAL 16:9 (720x576) VBR, Auto Letterboxed
Audio:
Russian (Dolby AC3, 2 ch)
English (Dolby AC3, 2 ch)
Subtitles:
English

Скриншоты меню

Скриншоты

Скриншоты анаморф.

[Profile]  [PM] 
Display posts:    
Reply to topic

Current time is: 17-Oct 21:29

All times are UTC + 2



You cannot post new topics in this forum
You cannot reply to topics in this forum
You cannot edit your posts in this forum
You cannot delete your posts in this forum
You cannot vote in polls in this forum
You cannot attach files in this forum
You cannot download files in this forum