Борис Раушенбах. Цитаты из жизни. (Виктор Васильев) [1999, Документальный сериал, DVD5]

Reply to topic
 
Author
Message

Atila ®

Gender: Unknown

Longevity: 7 years 4 months

Posts: 2497

Reputation: 0 [+] [-]

Atila · Post 04-Jun-2014 03:40

[Quote] 

Борис Раушенбах. Цитаты из жизни.
Год выпуска: 1999
Страна: Россия
Жанр: Документальный фильм
Продолжительность: 01:25:00
Перевод: Не требуется
Русские субтитры: нет
Режиссер: Виктор Васильев
Описание: «Борис Раушенбах. Цитаты из жизни» ( 3 серии ). Документально-публицистический сериал посвящён жизненному пути российского, советского физика-механика, одного из основоположников российской космонавтики, академика АН СССР, академика РАН, лауреата Ленинской премии Бори́са Ви́кторовича Раушенба́ха ( 1915 – 2001 )
«Борис Раушенбах. Цитаты из жизни» Фильм первый.
Первый фильм трилогии повествует о детстве, годах учёбы, знакомстве с С.Королёвым, военном периоде жизни одного из основоположников российской космонавтики, академика Бориса Викторовича Раушенбаха.
«Борис Раушенбах. Цитаты из жизни» Фильм второй.
Второй фильм трилогии повествует о совместной работе академика Бориса Викторовича Раушенбаха с М.Келдышем и С.Королёвым, разработке системы управления летательными аппаратами, подготовке полёта Ю.Гагарина, международной космической гонке и другим знаковым событиям в освоении космического пространства.
«Борис Раушенбах, Цитаты из жизни» Фильм третий.
Третий фильм трилогии повествует о работах академика Бориса Викторовича Раушенбаха в области теории перспективы, психологии зрительного восприятия, художественного творчества и других областях точных и гуманитарных наук.
Доп. информация: Сериал выкладывается с разрешения режиссёра Васильева Виктора Евгеньевича.
Меню: Статичное
Тип релиза: DVD5
Контейнер: DVD-Video
Видео: MPEG2, 720x576, 4:3, 25.00 fps, 6307 kbps
Аудио: русский язык, AC3, 2/0 (L,R) ch, 192 kbps

MediaInfo

General
Complete name : D:\КИНО\Фильмы Васильев\Борис Раушенбах. Цитаты из жизни\VIDEO_TS\VTS_01_1.VOB
Format : MPEG-PS
File size : 1 024 MiB
Duration : 22mn 42s
Overall bit rate mode : Variable
Overall bit rate : 6 307 Kbps
Video
ID : 224 (0xE0)
Format : MPEG Video
Format version : Version 2
Format profile : Main@Main
Format settings, BVOP : Yes
Format settings, Matrix : Default
Format settings, GOP : M=3, N=15
Duration : 22mn 42s
Bit rate mode : Variable
Bit rate : 5 989 Kbps
Maximum bit rate : 9 586 Kbps
Width : 720 pixels
Height : 576 pixels
Display aspect ratio : 4:3
Frame rate : 25.000 fps
Standard : PAL
Color space : YUV
Chroma subsampling : 4:2:0
Bit depth : 8 bits
Scan type : Progressive
Scan order : Bottom Field First
Compression mode : Lossy
Bits/(Pixel*Frame) : 0.578
Stream size : 972 MiB (95%)
Audio
ID : 189 (0xBD)-128 (0x80)
Format : AC-3
Format/Info : Audio Coding 3
Mode extension : CM (complete main)
Format settings, Endianness : Big
Muxing mode : DVD-Video
Duration : 22mn 41s
Bit rate mode : Constant
Bit rate : 192 Kbps
Channel(s) : 2 channels
Channel positions : Front: L R
Sampling rate : 48.0 KHz
Bit depth : 16 bits
Compression mode : Lossy
Delay relative to video : -80ms
Stream size : 31.2 MiB (3%)

DVDInfo

Title: Борис Раушенбах. Цитаты из жизни
Size: 3.29 Gb ( 3 449 804,00 KBytes ) - DVD-5
Enabled regions: 1, 2, 3, 4, 5, 6, 7, 8
VTS_01 :
Play Length: 00:25:09
Video: PAL 4:3 (720x576) VBR
Audio:
Not specified (Dolby AC3, 2 ch)
VTS_02 :
Play Length: 00:24:39
Video: PAL 4:3 (720x576) VBR
Audio:
Not specified (Dolby AC3, 2 ch)
VTS_03 :
Play Length: 00:23:59
Video: PAL 4:3 (720x576) VBR
Audio:
Not specified (Dolby AC3, 2 ch)

Скриншоты меню

[Profile]  [PM] 
Display posts:    
Reply to topic

Current time is: 17-Oct 19:30

All times are UTC + 2



You cannot post new topics in this forum
You cannot reply to topics in this forum
You cannot edit your posts in this forum
You cannot delete your posts in this forum
You cannot vote in polls in this forum
You cannot attach files in this forum
You cannot download files in this forum