ВОЕННАЯ АВИАЦИЯ / The Battle of the X-Planer (David Dugan) [2008, Научно-документальные фильмы, DVD5]

Reply to topic
 
Author
Message

Atila ®

Gender: Unknown

Longevity: 7 years 4 months

Posts: 2497

Reputation: 0 [+] [-]

Atila · Post 04-Jun-2014 03:41

[Quote] 

ВОЕННАЯ АВИАЦИЯ / The Battle of the X-Planer
Год выпуска: 2008
Страна: USA
Студия: National Geographic
Жанр: Научно-документальные фильмы
Продолжительность: 05:30:46 (эпизоды: 1 - 00:47:14, 2 - 00:46:13, 3 - 00:47:27, 4 - 00:47:29, 5 - 00:47:29, 6 - 00:47:13, 7 - 00:47:41)
Перевод: Одноголосый закадровый
Русские субтитры: нет
Режиссер: David Dugan
Описание: 1. Битва за самолет Х 2. Крылатая ракета 3. Война в воздухе 4. Могущество ВВС 5. Эпоха СТЕЛС 6. Эра реактивных истребителей 7. Над аллеей МИГОВ
В этих фильмах показана история создания военных самолетов, вертолетов и крылатых ракет, а также направления их развития в современном мире. Преодоление неимоверных трудностей и ошибок в создании летательных аппаратов, цена, которую приходится платить за это.
Сэмпл: http://multi-up.com/826649
Качество: DVD5
Формат: DVD video
Видео кодек: MPEG2
Аудио кодек: AC3
Видео: PAL 4:3 (352x576 & 768х576) VBR, 25.000 fps, mpeg video (pal), 3309 kbps ovg, 0,653 Бит/(Пиксели*Кадры)
Аудио: Russian, AC-3, 2 ch, 224 kbps, 48 khz

MediaInfo

Общее
Полное имя : D:\Дооформляемые раздачи\VIDEO_TS\VTS_01_1.VOB
Формат : MPEG-PS
Размер файла : 1000 Мбайт
Продолжительность : 38 м.
Режим общего битрейта : Переменный
Общий поток : 3605 Кбит/сек
Видео
Идентификатор : 224 (0xE0)
Формат : MPEG Video
Версия формата : Version 2
Профиль формата : Main@Main
Параметр BVOP формата : Нет
Параметр матрицы формата : Выборочная
Параметр GOP формата : Variable
Продолжительность : 38 м.
Вид битрейта : Переменный
Битрейт : 3309 Кбит/сек
Максимальный битрейт : 4000 Кбит/сек
Ширина : 352 пикселя
Высота : 576 пикселей
Соотношение сторон : 4:3
Частота кадров : 25,000 кадров/сек
Стандарт вещания : PAL
Цветовое пространство : YUV
Субдискретизация насыщенности : 4:2:0
Битовая глубина : 8 бит
Тип развёртки : Прогрессивная
Метод сжатия : С потерями
Бит/(Пиксели*Кадры) : 0.653
Размер потока : 918 Мбайт (92%)
Аудио
Идентификатор : 189 (0xBD)-128 (0x80)
Формат : AC-3
Формат/Информация : Audio Coding 3
Расширение режима : CM (complete main)
Параметр Endianness формата : Big
Режим смешивания : DVD-Video
Продолжительность : 38 м.
Вид битрейта : Постоянный
Битрейт : 224 Кбит/сек
Каналы : 2 канала
Расположение каналов : Front: L R
Частота : 48,0 КГц
Битовая глубина : 16 бит
Метод сжатия : С потерями
Размер потока : 62,1 Мбайт (6%)

DVDinfo

Title: Дооформляемые раздачи
Size: 3.92 Gb ( 4 110 368,00 KBytes ) - DVD-5
Enabled regions: 1, 2, 3, 4, 5, 6, 7, 8
VTS_01 :
Play Length: 00:47:14+00:46:57+00:47:27+00:47:29+00:47:29+00:47:13+00:47:41
Video: PAL 4:3 (352x576) VBR, Letterboxed
Audio:
English (Dolby AC3, 2 ch)
* Menus Information *
VIDEO_TS Menu
Video:
PAL 4:3 (720x576) VBR
Letterboxed
English Language Unit :
Title Menu
VTS_01 Menu
Video:
PAL 4:3 (720x576) VBR
Audio:
Not specified (Dolby AC3, 2 ch)
English Language Unit :
Root Menu

Скриншоты меню

Скриншоты

[Profile]  [PM] 
Display posts:    
Reply to topic

Current time is: 17-Oct 19:30

All times are UTC + 2



You cannot post new topics in this forum
You cannot reply to topics in this forum
You cannot edit your posts in this forum
You cannot delete your posts in this forum
You cannot vote in polls in this forum
You cannot attach files in this forum
You cannot download files in this forum