Наследие человечества. Выпуск 61: Большое Зимбабве, Нгоронгоро, Каменный город Занзибара (Кристиан Романовский / Kristian Romanovski) [2012, Документальный, DVD5]

Reply to topic
 
Author
Message

Atila ®

Gender: Unknown

Longevity: 7 years 4 months

Posts: 2497

Reputation: 0 [+] [-]

Atila · Post 04-Jun-2014 03:41

[Quote] 

Выпуск 61: Большое Зимбабве, Нгоронгоро, Каменный город Занзибара
Год выпуска: 2012
Страна: Германия, Россия
Жанр: Документальный
Продолжительность: 00:41:41
Перевод: Профессиональный (одноголосый)
Русские субтитры: нет
Режиссёр: Кристиан Романовский / Kristian Romanovski
Издатель: DeAgostini
Описание: Это новая вдохновляющая коллекция для тех, кто любит природу, путешествия и увлекается историей. Все достопримечательности, которые вы встретите на страницах журнала, включены в Список объектов Всемирного наследия ЮНЕСКО. Каждый номер журнала комплектуется DVD, повествующим о мировых культурных сокровищах и достижениях цивилизаций. Новая вдохновляющая коллекция для тех, кто любит природу, путешествия и историю.
На DVD:
Каменный город Занзибара
Расположенный на острове Занзибар у побережья Танзании Каменный город является прекрасным образцом прибрежного торгового города суахили. Разнообразная архитектура свидетельствует о влиянии множества культур, сказавшемся более чем за тысячу лет.
Национальный парк Нгоронгоро
Природная охраняемая территория Нгоронгоро в Танзании - наиболее богатый фауной район Восточной Африки. Его сердце - гигантский кратер Нгоронгоро. Эта территория известна также палеонтологическими находками в ущелье Олдувай.
Большое Зимбабве
Крупнейшее и наиболее значительное доколониальное каменное сооружение в Центральной и Южной Африке, руины Большого Зимбабве - уникальное свидетельство культуры народа шона из группы племен банту, относящееся к XI-XV веках.
Примечание: Выкладываю с согласия Dog67
Качество: DVD5
Формат: DVD video
Видео кодек: MPEG2
Аудио кодек: AC3
Видео: 720x576 VBR Auto Letterboxed, PAL, 16:9, 25fps, ~6162-6187 Kbps
Аудио 1: 48 kHz, AC3 Dolby Digital, 2/0 (L,R) ch, ~192 kbps [Русский]
Аудио 2: 48 kHz, AC3 Dolby Digital, 2/0 (L,R) ch, ~192 kbps [Украинский]

DVDInfo

Title: WH_61
Size: 2.02 Gb ( 2 119 042,00 KBytes ) - DVD-5
Enabled regions: 1, 2, 3, 4, 5, 6, 7, 8
VTS_01 :
Play Length: 00:00:45
Video: PAL 16:9 (720x576) VBR, Auto Letterboxed
Audio:
Not specified (Dolby AC3, 2 ch)
VTS_02 :
Play Length: 00:00:45
Video: PAL 16:9 (720x576) VBR, Auto Letterboxed
Audio:
Not specified (Dolby AC3, 2 ch)
VTS_03 :
Play Length: 00:41:41+{00:13:12}+{00:13:35}+{00:14:34}+{00:41:21}+{00:13:35}+{00:14:34}+{00:41:21}+{00:13:12}
Video: PAL 16:9 (720x576) VBR, Auto Letterboxed
Audio:
Not specified (Dolby AC3, 2 ch)
Not specified (Dolby AC3, 2 ch)
VTS_04 :
Play Length: 00:00:09
Video: PAL 16:9 (720x576) VBR, Auto Letterboxed
* Menus Information *
VIDEO_TS Menu
Video:
PAL 16:9 (720x576) VBR
Auto Letterboxed
English Language Unit :
Title Menu
VTS_01 Menu
Video:
PAL 16:9 (720x576) VBR
Auto Letterboxed
English Language Unit :
Root Menu
VTS_02 Menu
Video:
PAL 4:3 (720x576) VBR
English Language Unit :
Root Menu
VTS_03 Menu
Video:
PAL 4:3 (720x576) VBR
English Language Unit :
Root Menu
VTS_04 Menu
Video:
PAL 4:3 (720x576) VBR
English Language Unit :
Root Menu

MediaInfo

General
Complete name : WH_61\VIDEO_TS\VIDEO_TS.BUP
Format : DVD Video
Format profile : Menu
File size : 16.0 KiB
Overall bit rate mode : Variable
Video
ID : 224 (0xE0)
Format : MPEG Video
Format version : Version 2
Bit rate mode : Variable
Width : 720 pixels
Height : 576 pixels
Display aspect ratio : 16:9
Frame rate : 25.000 fps
Standard : PAL
Compression mode : Lossy
Text
Format : RLE
Format/Info : Run-length encoding
Bit depth : 2 bits
General
Complete name : WH_61\VIDEO_TS\VIDEO_TS.IFO
Format : DVD Video
Format profile : Menu
File size : 16.0 KiB
Overall bit rate mode : Variable
Video
ID : 224 (0xE0)
Format : MPEG Video
Format version : Version 2
Bit rate mode : Variable
Width : 720 pixels
Height : 576 pixels
Display aspect ratio : 16:9
Frame rate : 25.000 fps
Standard : PAL
Compression mode : Lossy
Text
Format : RLE
Format/Info : Run-length encoding
Bit depth : 2 bits
General
Complete name : WH_61\VIDEO_TS\VIDEO_TS.VOB
Format : MPEG-PS
File size : 154 KiB
Duration : 520ms
Overall bit rate : 2 426 Kbps
Video
ID : 224 (0xE0)
Format : MPEG Video
Format version : Version 2
Format profile : Main@Main
Format settings, BVOP : Yes
Format settings, Matrix : Custom
Duration : 520ms
Maximum bit rate : 2 000 Kbps
Width : 720 pixels
Height : 576 pixels
Display aspect ratio : 4:3
Frame rate : 25.000 fps
Standard : PAL
Color space : YUV
Chroma subsampling : 4:2:0
Bit depth : 8 bits
Scan type : Interlaced
Scan order : Top Field First
Compression mode : Lossy
Text
ID : 189 (0xBD)-32 (0x20)
Format : RLE
Format/Info : Run-length encoding
Muxing mode : DVD-Video
Delay relative to video : -80ms
Menu
General
Complete name : WH_61\VIDEO_TS\VTS_01_0.BUP
Format : DVD Video
Format profile : Program
File size : 22.0 KiB
Duration : 45s 760ms
Overall bit rate mode : Variable
Overall bit rate : 3 938 bps
Video
ID : 224 (0xE0)
Format : MPEG Video
Format version : Version 2
Duration : 45s 760ms
Bit rate mode : Variable
Width : 720 pixels
Height : 576 pixels
Display aspect ratio : 16:9
Frame rate : 25.000 fps
Standard : PAL
Compression mode : Lossy
Audio
ID : 128 (0x80)
Format : AC-3
Format/Info : Audio Coding 3
Duration : 45s 760ms
Channel(s) : 2 channels
Sampling rate : 48.0 KHz
Compression mode : Lossy
Menu
Duration : 45s 760ms
00:00:00.000 : Chapter 1
List (Audio) : 0
General
Complete name : WH_61\VIDEO_TS\VTS_01_0.IFO
Format : DVD Video
Format profile : Program
File size : 22.0 KiB
Duration : 45s 760ms
Overall bit rate mode : Variable
Overall bit rate : 3 938 bps
Video
ID : 224 (0xE0)
Format : MPEG Video
Format version : Version 2
Duration : 45s 760ms
Bit rate mode : Variable
Width : 720 pixels
Height : 576 pixels
Display aspect ratio : 16:9
Frame rate : 25.000 fps
Standard : PAL
Compression mode : Lossy
Audio
ID : 128 (0x80)
Format : AC-3
Format/Info : Audio Coding 3
Duration : 45s 760ms
Channel(s) : 2 channels
Sampling rate : 48.0 KHz
Compression mode : Lossy
Menu
Duration : 45s 760ms
00:00:00.000 : Chapter 1
List (Audio) : 0
General
Complete name : WH_61\VIDEO_TS\VTS_01_0.VOB
Format : MPEG-PS
File size : 16.1 MiB
Duration : 10s 0ms
Overall bit rate mode : Variable
Overall bit rate : 13.5 Mbps
Video
ID : 224 (0xE0)
Format : MPEG Video
Format version : Version 2
Format profile : Main@Main
Format settings, BVOP : Yes
Format settings, Matrix : Custom
Format settings, GOP : M=3, N=12
Duration : 10s 0ms
Bit rate mode : Variable
Bit rate : 13.3 Mbps
Maximum bit rate : 8 000 Kbps
Width : 720 pixels
Height : 576 pixels
Display aspect ratio : 16:9
Frame rate : 25.000 fps
Standard : PAL
Color space : YUV
Chroma subsampling : 4:2:0
Bit depth : 8 bits
Scan type : Interlaced
Scan order : Bottom Field First
Compression mode : Lossy
Bits/(Pixel*Frame) : 1.280
Stream size : 15.8 MiB (98%)
Text #1
ID : 189 (0xBD)-32 (0x20)
Format : RLE
Format/Info : Run-length encoding
Muxing mode : DVD-Video
Text #2
ID : 189 (0xBD)-33 (0x21)
Format : RLE
Format/Info : Run-length encoding
Muxing mode : DVD-Video
Menu
General
Complete name : WH_61\VIDEO_TS\VTS_01_1.VOB
Format : MPEG-PS
File size : 28.3 MiB
Duration : 45s 760ms
Overall bit rate mode : Variable
Overall bit rate : 5 193 Kbps
Video
ID : 224 (0xE0)
Format : MPEG Video
Format version : Version 2
Format profile : Main@Main
Format settings, BVOP : Yes
Format settings, Matrix : Custom
Format settings, GOP : M=3, N=12
Duration : 45s 760ms
Bit rate mode : Variable
Maximum bit rate : 7 700 Kbps
Width : 720 pixels
Height : 576 pixels
Display aspect ratio : 16:9
Frame rate : 25.000 fps
Standard : PAL
Color space : YUV
Chroma subsampling : 4:2:0
Bit depth : 8 bits
Scan type : Interlaced
Scan order : Bottom Field First
Compression mode : Lossy
Color primaries : BT.601 PAL
Transfer characteristics : BT.470 System B, BT.470 System G
Matrix coefficients : BT.601
Audio #1
ID : 189 (0xBD)-128 (0x80)
Format : AC-3
Format/Info : Audio Coding 3
Mode extension : CM (complete main)
Format settings, Endianness : Big
Muxing mode : DVD-Video
Duration : 45s 696ms
Bit rate mode : Constant
Bit rate : 192 Kbps
Channel(s) : 2 channels
Channel positions : Front: L R
Sampling rate : 48.0 KHz
Bit depth : 16 bits
Compression mode : Lossy
Stream size : 1.05 MiB (4%)
Audio #2
ID : 221 (0xDD)
Format : MPEG Audio
Compression mode : Lossy
Menu
General
Complete name : WH_61\VIDEO_TS\VTS_02_0.BUP
Format : DVD Video
Format profile : Program
File size : 18.0 KiB
Duration : 45s 760ms
Overall bit rate mode : Variable
Overall bit rate : 3 222 bps
Video
ID : 224 (0xE0)
Format : MPEG Video
Format version : Version 2
Duration : 45s 760ms
Bit rate mode : Variable
Width : 720 pixels
Height : 576 pixels
Display aspect ratio : 16:9
Frame rate : 25.000 fps
Standard : PAL
Compression mode : Lossy
Audio
ID : 128 (0x80)
Format : AC-3
Format/Info : Audio Coding 3
Duration : 45s 760ms
Channel(s) : 2 channels
Sampling rate : 48.0 KHz
Compression mode : Lossy
Menu
Duration : 45s 760ms
00:00:00.000 : Chapter 1
List (Audio) : 0
General
Complete name : WH_61\VIDEO_TS\VTS_02_0.IFO
Format : DVD Video
Format profile : Program
File size : 18.0 KiB
Duration : 45s 760ms
Overall bit rate mode : Variable
Overall bit rate : 3 222 bps
Video
ID : 224 (0xE0)
Format : MPEG Video
Format version : Version 2
Duration : 45s 760ms
Bit rate mode : Variable
Width : 720 pixels
Height : 576 pixels
Display aspect ratio : 16:9
Frame rate : 25.000 fps
Standard : PAL
Compression mode : Lossy
Audio
ID : 128 (0x80)
Format : AC-3
Format/Info : Audio Coding 3
Duration : 45s 760ms
Channel(s) : 2 channels
Sampling rate : 48.0 KHz
Compression mode : Lossy
Menu
Duration : 45s 760ms
00:00:00.000 : Chapter 1
List (Audio) : 0
General
Complete name : WH_61\VIDEO_TS\VTS_02_0.VOB
Format : MPEG-PS
File size : 154 KiB
Duration : 520ms
Overall bit rate : 2 426 Kbps
Video
ID : 224 (0xE0)
Format : MPEG Video
Format version : Version 2
Format profile : Main@Main
Format settings, BVOP : Yes
Format settings, Matrix : Custom
Duration : 520ms
Maximum bit rate : 2 000 Kbps
Width : 720 pixels
Height : 576 pixels
Display aspect ratio : 4:3
Frame rate : 25.000 fps
Standard : PAL
Color space : YUV
Chroma subsampling : 4:2:0
Bit depth : 8 bits
Scan type : Interlaced
Scan order : Top Field First
Compression mode : Lossy
Text
ID : 189 (0xBD)-32 (0x20)
Format : RLE
Format/Info : Run-length encoding
Muxing mode : DVD-Video
Delay relative to video : -80ms
Menu
General
Complete name : WH_61\VIDEO_TS\VTS_02_1.VOB
Format : MPEG-PS
File size : 28.2 MiB
Duration : 45s 760ms
Overall bit rate mode : Variable
Overall bit rate : 5 173 Kbps
Video
ID : 224 (0xE0)
Format : MPEG Video
Format version : Version 2
Format profile : Main@Main
Format settings, BVOP : Yes
Format settings, Matrix : Custom
Format settings, GOP : M=3, N=12
Duration : 45s 760ms
Bit rate mode : Variable
Maximum bit rate : 7 700 Kbps
Width : 720 pixels
Height : 576 pixels
Display aspect ratio : 16:9
Frame rate : 25.000 fps
Standard : PAL
Color space : YUV
Chroma subsampling : 4:2:0
Bit depth : 8 bits
Scan type : Interlaced
Scan order : Bottom Field First
Compression mode : Lossy
Color primaries : BT.601 PAL
Transfer characteristics : BT.470 System B, BT.470 System G
Matrix coefficients : BT.601
Audio #1
ID : 189 (0xBD)-128 (0x80)
Format : AC-3
Format/Info : Audio Coding 3
Mode extension : CM (complete main)
Format settings, Endianness : Big
Muxing mode : DVD-Video
Duration : 45s 696ms
Bit rate mode : Constant
Bit rate : 192 Kbps
Channel(s) : 2 channels
Channel positions : Front: L R
Sampling rate : 48.0 KHz
Bit depth : 16 bits
Compression mode : Lossy
Stream size : 1.05 MiB (4%)
Audio #2
ID : 221 (0xDD)
Format : MPEG Audio
Compression mode : Lossy
Menu
General
Complete name : WH_61\VIDEO_TS\VTS_03_0.BUP
Format : DVD Video
Format profile : Program
File size : 74.0 KiB
Duration : 41mn 41s
Overall bit rate mode : Variable
Overall bit rate : 242 bps
Video
ID : 224 (0xE0)
Format : MPEG Video
Format version : Version 2
Duration : 41mn 41s
Bit rate mode : Variable
Width : 720 pixels
Height : 576 pixels
Display aspect ratio : 16:9
Frame rate : 25.000 fps
Standard : PAL
Compression mode : Lossy
Audio #1
ID : 128 (0x80)
Format : AC-3
Format/Info : Audio Coding 3
Duration : 41mn 41s
Channel(s) : 2 channels
Sampling rate : 48.0 KHz
Compression mode : Lossy
Audio #2
ID : 129 (0x81)
Format : AC-3
Format/Info : Audio Coding 3
Duration : 41mn 41s
Channel(s) : 2 channels
Sampling rate : 48.0 KHz
Compression mode : Lossy
Menu #1
Duration : 41mn 41s
00:00:00.000 : Chapter 1
00:00:06.480 : Chapter 2
00:13:12.240 : Chapter 3
00:13:18.720 : Chapter 4
00:27:46.320 : Chapter 5
00:27:52.800 : Chapter 6
00:41:21.920 : Chapter 7
00:41:28.400 : Chapter 8
00:41:34.880 : Chapter 9
List (Audio) : 0 / 1
Menu #2
Duration : 13mn 12s
00:00:00.000 : Chapter 1
00:00:06.480 : Chapter 2
List (Audio) : 0 / 1
Menu #3
Duration : 13mn 35s
00:00:00.000 : Chapter 1
00:00:06.480 : Chapter 2
List (Audio) : 0 / 1
Menu #4
Duration : 14mn 34s
00:00:00.000 : Chapter 1
00:00:06.480 : Chapter 2
List (Audio) : 0 / 1
Menu #5
Duration : 41mn 21s
00:00:00.000 : Chapter 1
00:00:06.480 : Chapter 2
00:13:12.240 : Chapter 3
00:13:18.720 : Chapter 4
00:26:47.840 : Chapter 5
00:26:54.320 : Chapter 6
List (Audio) : 0 / 1
Menu #6
Duration : 13mn 35s
00:00:00.000 : Chapter 1
00:00:06.480 : Chapter 2
List (Audio) : 0 / 1
Menu #7
Duration : 14mn 34s
00:00:00.000 : Chapter 1
00:00:06.480 : Chapter 2
List (Audio) : 0 / 1
Menu #8
Duration : 41mn 21s
00:00:00.000 : Chapter 1
00:00:06.480 : Chapter 2
00:13:12.240 : Chapter 3
00:13:18.720 : Chapter 4
00:26:47.840 : Chapter 5
00:26:54.320 : Chapter 6
List (Audio) : 0 / 1
Menu #9
Duration : 13mn 12s
00:00:00.000 : Chapter 1
00:00:06.480 : Chapter 2
List (Audio) : 0 / 1
General
Complete name : WH_61\VIDEO_TS\VTS_03_0.IFO
Format : DVD Video
Format profile : Program
File size : 74.0 KiB
Duration : 41mn 41s
Overall bit rate mode : Variable
Overall bit rate : 242 bps
Video
ID : 224 (0xE0)
Format : MPEG Video
Format version : Version 2
Duration : 41mn 41s
Bit rate mode : Variable
Width : 720 pixels
Height : 576 pixels
Display aspect ratio : 16:9
Frame rate : 25.000 fps
Standard : PAL
Compression mode : Lossy
Audio #1
ID : 128 (0x80)
Format : AC-3
Format/Info : Audio Coding 3
Duration : 41mn 41s
Channel(s) : 2 channels
Sampling rate : 48.0 KHz
Compression mode : Lossy
Audio #2
ID : 129 (0x81)
Format : AC-3
Format/Info : Audio Coding 3
Duration : 41mn 41s
Channel(s) : 2 channels
Sampling rate : 48.0 KHz
Compression mode : Lossy
Menu #1
Duration : 41mn 41s
00:00:00.000 : Chapter 1
00:00:06.480 : Chapter 2
00:13:12.240 : Chapter 3
00:13:18.720 : Chapter 4
00:27:46.320 : Chapter 5
00:27:52.800 : Chapter 6
00:41:21.920 : Chapter 7
00:41:28.400 : Chapter 8
00:41:34.880 : Chapter 9
List (Audio) : 0 / 1
Menu #2
Duration : 13mn 12s
00:00:00.000 : Chapter 1
00:00:06.480 : Chapter 2
List (Audio) : 0 / 1
Menu #3
Duration : 13mn 35s
00:00:00.000 : Chapter 1
00:00:06.480 : Chapter 2
List (Audio) : 0 / 1
Menu #4
Duration : 14mn 34s
00:00:00.000 : Chapter 1
00:00:06.480 : Chapter 2
List (Audio) : 0 / 1
Menu #5
Duration : 41mn 21s
00:00:00.000 : Chapter 1
00:00:06.480 : Chapter 2
00:13:12.240 : Chapter 3
00:13:18.720 : Chapter 4
00:26:47.840 : Chapter 5
00:26:54.320 : Chapter 6
List (Audio) : 0 / 1
Menu #6
Duration : 13mn 35s
00:00:00.000 : Chapter 1
00:00:06.480 : Chapter 2
List (Audio) : 0 / 1
Menu #7
Duration : 14mn 34s
00:00:00.000 : Chapter 1
00:00:06.480 : Chapter 2
List (Audio) : 0 / 1
Menu #8
Duration : 41mn 21s
00:00:00.000 : Chapter 1
00:00:06.480 : Chapter 2
00:13:12.240 : Chapter 3
00:13:18.720 : Chapter 4
00:26:47.840 : Chapter 5
00:26:54.320 : Chapter 6
List (Audio) : 0 / 1
Menu #9
Duration : 13mn 12s
00:00:00.000 : Chapter 1
00:00:06.480 : Chapter 2
List (Audio) : 0 / 1
General
Complete name : WH_61\VIDEO_TS\VTS_03_0.VOB
Format : MPEG-PS
File size : 154 KiB
Duration : 520ms
Overall bit rate : 2 426 Kbps
Video
ID : 224 (0xE0)
Format : MPEG Video
Format version : Version 2
Format profile : Main@Main
Format settings, BVOP : Yes
Format settings, Matrix : Custom
Duration : 520ms
Maximum bit rate : 2 000 Kbps
Width : 720 pixels
Height : 576 pixels
Display aspect ratio : 4:3
Frame rate : 25.000 fps
Standard : PAL
Color space : YUV
Chroma subsampling : 4:2:0
Bit depth : 8 bits
Scan type : Interlaced
Scan order : Top Field First
Compression mode : Lossy
Text
ID : 189 (0xBD)-32 (0x20)
Format : RLE
Format/Info : Run-length encoding
Muxing mode : DVD-Video
Delay relative to video : -80ms
Menu
General
Complete name : WH_61\VIDEO_TS\VTS_03_1.VOB
Format : MPEG-PS
File size : 1 024 MiB
Duration : 21mn 25s
Overall bit rate mode : Variable
Overall bit rate : 6 679 Kbps
Video
ID : 224 (0xE0)
Format : MPEG Video
Format version : Version 2
Format profile : Main@Main
Format settings, BVOP : Yes
Format settings, Matrix : Custom
Format settings, GOP : M=3, N=12
Duration : 21mn 25s
Bit rate mode : Variable
Bit rate : 6 162 Kbps
Maximum bit rate : 7 700 Kbps
Width : 720 pixels
Height : 576 pixels
Display aspect ratio : 16:9
Frame rate : 25.000 fps
Standard : PAL
Color space : YUV
Chroma subsampling : 4:2:0
Bit depth : 8 bits
Scan type : Interlaced
Scan order : Bottom Field First
Compression mode : Lossy
Bits/(Pixel*Frame) : 0.594
Stream size : 945 MiB (92%)
Color primaries : BT.601 PAL
Transfer characteristics : BT.470 System B, BT.470 System G
Matrix coefficients : BT.601
Audio #1
ID : 189 (0xBD)-128 (0x80)
Format : AC-3
Format/Info : Audio Coding 3
Mode extension : CM (complete main)
Format settings, Endianness : Big
Muxing mode : DVD-Video
Duration : 21mn 25s
Bit rate mode : Constant
Bit rate : 192 Kbps
Channel(s) : 2 channels
Channel positions : Front: L R
Sampling rate : 48.0 KHz
Bit depth : 16 bits
Compression mode : Lossy
Stream size : 29.4 MiB (3%)
Audio #2
ID : 189 (0xBD)-129 (0x81)
Format : AC-3
Format/Info : Audio Coding 3
Mode extension : CM (complete main)
Format settings, Endianness : Big
Muxing mode : DVD-Video
Duration : 21mn 25s
Bit rate mode : Constant
Bit rate : 192 Kbps
Channel(s) : 2 channels
Channel positions : Front: L R
Sampling rate : 48.0 KHz
Bit depth : 16 bits
Compression mode : Lossy
Stream size : 29.4 MiB (3%)
Menu
General
Complete name : WH_61\VIDEO_TS\VTS_03_2.VOB
Format : MPEG-PS
File size : 971 MiB
Duration : 20mn 15s
Overall bit rate mode : Variable
Overall bit rate : 6 704 Kbps
Video
ID : 224 (0xE0)
Format : MPEG Video
Format version : Version 2
Format profile : Main@Main
Format settings, BVOP : Yes
Format settings, Matrix : Custom
Format settings, GOP : M=3, N=12
Duration : 20mn 15s
Bit rate mode : Variable
Bit rate : 6 187 Kbps
Maximum bit rate : 7 700 Kbps
Width : 720 pixels
Height : 576 pixels
Display aspect ratio : 16:9
Frame rate : 25.000 fps
Standard : PAL
Color space : YUV
Chroma subsampling : 4:2:0
Bit depth : 8 bits
Scan type : Interlaced
Scan order : Top Field First
Compression mode : Lossy
Bits/(Pixel*Frame) : 0.597
Stream size : 896 MiB (92%)
Color primaries : BT.601 PAL
Transfer characteristics : BT.470 System B, BT.470 System G
Matrix coefficients : BT.601
Audio #1
ID : 189 (0xBD)-128 (0x80)
Format : AC-3
Format/Info : Audio Coding 3
Mode extension : CM (complete main)
Format settings, Endianness : Big
Muxing mode : DVD-Video
Duration : 20mn 15s
Bit rate mode : Constant
Bit rate : 192 Kbps
Channel(s) : 2 channels
Channel positions : Front: L R
Sampling rate : 48.0 KHz
Bit depth : 16 bits
Compression mode : Lossy
Delay relative to video : -288ms
Stream size : 27.8 MiB (3%)
Audio #2
ID : 189 (0xBD)-129 (0x81)
Format : AC-3
Format/Info : Audio Coding 3
Mode extension : CM (complete main)
Format settings, Endianness : Big
Muxing mode : DVD-Video
Duration : 20mn 15s
Bit rate mode : Constant
Bit rate : 192 Kbps
Channel(s) : 2 channels
Channel positions : Front: L R
Sampling rate : 48.0 KHz
Bit depth : 16 bits
Compression mode : Lossy
Delay relative to video : -288ms
Stream size : 27.8 MiB (3%)
Menu
General
Complete name : WH_61\VIDEO_TS\VTS_04_0.BUP
Format : DVD Video
Format profile : Program
File size : 18.0 KiB
Duration : 9s 0ms
Overall bit rate mode : Variable
Overall bit rate : 16.4 Kbps
Video
ID : 224 (0xE0)
Format : MPEG Video
Format version : Version 2
Duration : 9s 0ms
Bit rate mode : Variable
Bit rate : 8 835 bps
Width : 720 pixels
Height : 576 pixels
Display aspect ratio : 16:9
Frame rate : 25.000 fps
Standard : PAL
Compression mode : Lossy
Bits/(Pixel*Frame) : 0.001
Stream size : 9.71 KiB (54%)
Menu
Duration : 9s 0ms
00:00:00.000 : Chapter 1
General
Complete name : WH_61\VIDEO_TS\VTS_04_0.IFO
Format : DVD Video
Format profile : Program
File size : 18.0 KiB
Duration : 9s 0ms
Overall bit rate mode : Variable
Overall bit rate : 16.4 Kbps
Video
ID : 224 (0xE0)
Format : MPEG Video
Format version : Version 2
Duration : 9s 0ms
Bit rate mode : Variable
Bit rate : 8 835 bps
Width : 720 pixels
Height : 576 pixels
Display aspect ratio : 16:9
Frame rate : 25.000 fps
Standard : PAL
Compression mode : Lossy
Bits/(Pixel*Frame) : 0.001
Stream size : 9.71 KiB (54%)
Menu
Duration : 9s 0ms
00:00:00.000 : Chapter 1
General
Complete name : WH_61\VIDEO_TS\VTS_04_0.VOB
Format : MPEG-PS
File size : 154 KiB
Duration : 520ms
Overall bit rate : 2 426 Kbps
Video
ID : 224 (0xE0)
Format : MPEG Video
Format version : Version 2
Format profile : Main@Main
Format settings, BVOP : Yes
Format settings, Matrix : Custom
Duration : 520ms
Maximum bit rate : 2 000 Kbps
Width : 720 pixels
Height : 576 pixels
Display aspect ratio : 4:3
Frame rate : 25.000 fps
Standard : PAL
Color space : YUV
Chroma subsampling : 4:2:0
Bit depth : 8 bits
Scan type : Interlaced
Scan order : Top Field First
Compression mode : Lossy
Text
ID : 189 (0xBD)-32 (0x20)
Format : RLE
Format/Info : Run-length encoding
Muxing mode : DVD-Video
Delay relative to video : -80ms
Menu
General
Complete name : WH_61\VIDEO_TS\VTS_04_1.VOB
Format : MPEG-PS
File size : 606 KiB
Duration : 9s 0ms
Overall bit rate mode : Variable
Overall bit rate : 552 Kbps
Video
ID : 224 (0xE0)
Format : MPEG Video
Format version : Version 2
Format profile : Main@Main
Format settings, BVOP : Yes
Format settings, Matrix : Custom
Format settings, GOP : M=3, N=12
Duration : 9s 0ms
Bit rate mode : Variable
Bit rate : 541 Kbps
Maximum bit rate : 7 700 Kbps
Width : 720 pixels
Height : 576 pixels
Display aspect ratio : 16:9
Frame rate : 25.000 fps
Standard : PAL
Color space : YUV
Chroma subsampling : 4:2:0
Bit depth : 8 bits
Scan type : Interlaced
Scan order : Bottom Field First
Compression mode : Lossy
Bits/(Pixel*Frame) : 0.052
Stream size : 594 KiB (98%)
Color primaries : BT.601 PAL
Transfer characteristics : BT.470 System B, BT.470 System G
Matrix coefficients : BT.601
Menu

Скриншоты Меню

Скриншоты

Блинчик и Коврик

[Profile]  [PM] 
Display posts:    
Reply to topic

Current time is: 17-Oct 19:41

All times are UTC + 2



You cannot post new topics in this forum
You cannot reply to topics in this forum
You cannot edit your posts in this forum
You cannot delete your posts in this forum
You cannot vote in polls in this forum
You cannot attach files in this forum
You cannot download files in this forum