Среда обитания. Сказка о летучей лисе / Flying Fox Fairytale (Линда Дейвис) [2001, Документальный, DVD5]

Reply to topic
 
Author
Message

Atila ®

Gender: Unknown

Longevity: 7 years 3 months

Posts: 2491

Reputation: 0 [+] [-]

Atila · Post 04-Jun-2014 03:43

[Quote] 

Среда обитания. Сказка о летучей лисе / Flying Fox Fairytale
Год выпуска: 2001
Страна: Австралия
Жанр: Документальный
Продолжительность: 00:50:01
Перевод: Профессиональный (одноголосый)
Русские субтитры: есть
Режиссер: Линда Дейвис
Описание: В этом фильме мы окажемся один на один с бросающими в дрожь одним своим видом созданиями - летучими лисами (особый вид летучих мышей). Они - материальное воплощение ночных кошмаров! Но вы поверили бы, что они могут быть привлекательны? Спросим об этом у зоолога Мередит - она без ума от своих питомцев!
Качество: DVD5
Формат: DVD video
Видео кодек: MPEG2
Аудио кодек: AC3
Видео: 5 602 Kbps, 720x576 (2:40:1) at 25.000 fps, MPEG Video (PAL)
Аудио: Русский - 384 Kbps, 48.0 KHz, 16 bits, Dolby AC3, 6 ch
Аудио: Английский - 384 Kbps, 48.0 KHz, 16 bits, Dolby AC3, 6 ch

MediaInfo

General
Полное имя : D:\Документы тут\Среда обитания. Сказка о летучей лисе\VIDEO_TS\VIDEO_TS.BUP
Формат : DVD Video
Профиль формата : Menu
Размер файла : 12.0 KiB
Режим общего битрейта : Variable
Video
Идентификатор : 224 (0xE0)
Формат : MPEG Video
Версия формата : Version 2
Вид битрейта : Variable
Ширина : 720 pixels
Высота : 576 pixels
Соотношение сторон : 4:3
Частота кадров : 25.000 fps
Стандарт вещания : PAL
Метод сжатия : Lossy
Text
Формат : RLE
Формат/Информация : Run-length encoding
Битовая глубина : 2 bits
General
Полное имя : D:\Документы тут\Среда обитания. Сказка о летучей лисе\VIDEO_TS\VIDEO_TS.IFO
Формат : DVD Video
Профиль формата : Menu
Размер файла : 12.0 KiB
Режим общего битрейта : Variable
Video
Идентификатор : 224 (0xE0)
Формат : MPEG Video
Версия формата : Version 2
Вид битрейта : Variable
Ширина : 720 pixels
Высота : 576 pixels
Соотношение сторон : 4:3
Частота кадров : 25.000 fps
Стандарт вещания : PAL
Метод сжатия : Lossy
Text
Формат : RLE
Формат/Информация : Run-length encoding
Битовая глубина : 2 bits
General
Полное имя : D:\Документы тут\Среда обитания. Сказка о летучей лисе\VIDEO_TS\VIDEO_TS.VOB
Формат : MPEG-PS
Размер файла : 28.0 KiB
Продолжительность : 40ms
Общий поток : 5 734 Kbps
Video
Идентификатор : 224 (0xE0)
Формат : MPEG Video
Версия формата : Version 2
Профиль формата : Main@Main
Параметр BVOP формата : No
Параметр матрицы формата : Custom
Параметр GOP формата : N=1
Продолжительность : 40ms
Максимальный битрейт : 9 000 Kbps
Ширина : 720 pixels
Высота : 576 pixels
Соотношение сторон : 4:3
Частота кадров : 25.000 fps
Стандарт вещания : PAL
Цветовое пространство : YUV
Субдискретизация насыщенности : 4:2:0
Битовая глубина : 8 bits
Тип развёртки : Progressive
Порядок развёртки : Top Field First
Метод сжатия : Lossy
Color primaries : SMPTE 170M
Transfer characteristics : SMPTE 170M
Matrix coefficients : SMPTE 170M
Text
Идентификатор : 189 (0xBD)-32 (0x20)
Формат : RLE
Формат/Информация : Run-length encoding
Режим смешивания : DVD-Video
Menu
General
Полное имя : D:\Документы тут\Среда обитания. Сказка о летучей лисе\VIDEO_TS\VTS_01_0.BUP
Формат : DVD Video
Профиль формата : Program
Размер файла : 34.0 KiB
Продолжительность : 50mn 1s
Режим общего битрейта : Variable
Общий поток : 93 bps
Video
Идентификатор : 224 (0xE0)
Формат : MPEG Video
Версия формата : Version 2
Продолжительность : 50mn 1s
Вид битрейта : Variable
Ширина : 720 pixels
Высота : 576 pixels
Соотношение сторон : 16:9
Частота кадров : 25.000 fps
Стандарт вещания : PAL
Метод сжатия : Lossy
Audio #1
Идентификатор : 128 (0x80)
Формат : AC-3
Формат/Информация : Audio Coding 3
Продолжительность : 50mn 1s
Каналы : 6 channels
Частота : 48.0 KHz
Метод сжатия : Lossy
Audio #2
Идентификатор : 129 (0x81)
Формат : AC-3
Формат/Информация : Audio Coding 3
Продолжительность : 50mn 1s
Каналы : 6 channels
Частота : 48.0 KHz
Метод сжатия : Lossy
Text
Идентификатор : 33 (0x21)
Формат : RLE
Формат/Информация : Run-length encoding
Битовая глубина : 2 bits
Menu
Продолжительность : 50mn 1s
00:00:00.000 : Chapter 1
00:06:44.480 : Chapter 2
00:16:41.760 : Chapter 3
00:26:57.600 : Chapter 4
00:34:27.040 : Chapter 5
00:43:00.800 : Chapter 6
List (Audio) : 0 / 1
List (Subtitles 4/3) : 0
List (Subtitles Wide) : 1
List (Subtitles Letterbox) : 0
List (Subtitles Pan&Scan) : 0
General
Полное имя : D:\Документы тут\Среда обитания. Сказка о летучей лисе\VIDEO_TS\VTS_01_0.IFO
Формат : DVD Video
Профиль формата : Program
Размер файла : 34.0 KiB
Продолжительность : 50mn 1s
Режим общего битрейта : Variable
Общий поток : 93 bps
Video
Идентификатор : 224 (0xE0)
Формат : MPEG Video
Версия формата : Version 2
Продолжительность : 50mn 1s
Вид битрейта : Variable
Ширина : 720 pixels
Высота : 576 pixels
Соотношение сторон : 16:9
Частота кадров : 25.000 fps
Стандарт вещания : PAL
Метод сжатия : Lossy
Audio #1
Идентификатор : 128 (0x80)
Формат : AC-3
Формат/Информация : Audio Coding 3
Продолжительность : 50mn 1s
Каналы : 6 channels
Частота : 48.0 KHz
Метод сжатия : Lossy
Audio #2
Идентификатор : 129 (0x81)
Формат : AC-3
Формат/Информация : Audio Coding 3
Продолжительность : 50mn 1s
Каналы : 6 channels
Частота : 48.0 KHz
Метод сжатия : Lossy
Text
Идентификатор : 33 (0x21)
Формат : RLE
Формат/Информация : Run-length encoding
Битовая глубина : 2 bits
Menu
Продолжительность : 50mn 1s
00:00:00.000 : Chapter 1
00:06:44.480 : Chapter 2
00:16:41.760 : Chapter 3
00:26:57.600 : Chapter 4
00:34:27.040 : Chapter 5
00:43:00.800 : Chapter 6
List (Audio) : 0 / 1
List (Subtitles 4/3) : 0
List (Subtitles Wide) : 1
List (Subtitles Letterbox) : 0
List (Subtitles Pan&Scan) : 0
General
Полное имя : D:\Документы тут\Среда обитания. Сказка о летучей лисе\VIDEO_TS\VTS_01_0.VOB
Формат : MPEG-PS
Размер файла : 6.40 MiB
Продолжительность : 30s 17ms
Общий поток : 1 788 Kbps
Video
Идентификатор : 224 (0xE0)
Формат : MPEG Video
Версия формата : Version 2
Профиль формата : Main@Main
Параметр BVOP формата : No
Параметр матрицы формата : Custom
Параметр GOP формата : N=1
Продолжительность : 41ms
Битрейт : 1 368 Kbps
Максимальный битрейт : 9 000 Kbps
Ширина : 720 pixels
Высота : 576 pixels
Соотношение сторон : 4:3
Частота кадров : 25.000 fps
Стандарт вещания : PAL
Цветовое пространство : YUV
Субдискретизация насыщенности : 4:2:0
Битовая глубина : 8 bits
Тип развёртки : Progressive
Порядок развёртки : Top Field First
Метод сжатия : Lossy
Бит/(Пиксели*Кадры) : 0.132
Размер потока : 6.68 KiB (0%)
Color primaries : SMPTE 170M
Transfer characteristics : SMPTE 170M
Matrix coefficients : SMPTE 170M
Audio
Идентификатор : 189 (0xBD)-128 (0x80)
Формат : AC-3
Формат/Информация : Audio Coding 3
Расширение режима : CM (complete main)
Параметр Endianness формата : Big
Режим смешивания : DVD-Video
Продолжительность : 30s 17ms
Вид битрейта : Constant
Битрейт : 384 Kbps
Каналы : 6 channels
Расположение каналов : Front: L C R, Side: L R, LFE
Частота : 48.0 KHz
Битовая глубина : 16 bits
Метод сжатия : Lossy
Размер потока : 1.37 MiB (21%)
Text
Идентификатор : 189 (0xBD)-32 (0x20)
Формат : RLE
Формат/Информация : Run-length encoding
Режим смешивания : DVD-Video
Menu
General
Полное имя : D:\Документы тут\Среда обитания. Сказка о летучей лисе\VIDEO_TS\VTS_01_1.VOB
Формат : MPEG-PS
Размер файла : 1 024 MiB
Продолжительность : 22mn 1s
Режим общего битрейта : Variable
Общий поток : 6 500 Kbps
Video
Идентификатор : 224 (0xE0)
Формат : MPEG Video
Версия формата : Version 2
Профиль формата : Main@Main
Параметр BVOP формата : Yes
Параметр матрицы формата : Default
Продолжительность : 22mn 1s
Вид битрейта : Variable
Битрейт : 5 602 Kbps
Максимальный битрейт : 8 300 Kbps
Ширина : 720 pixels
Высота : 576 pixels
Соотношение сторон : 2.40:1
Частота кадров : 25.000 fps
Стандарт вещания : PAL
Цветовое пространство : YUV
Субдискретизация насыщенности : 4:2:0
Битовая глубина : 8 bits
Тип развёртки : Interlaced
Порядок развёртки : Top Field First
Метод сжатия : Lossy
Бит/(Пиксели*Кадры) : 0.540
Размер потока : 883 MiB (86%)
Color primaries : BT.470-2 System B, BT.470-2 System G
Transfer characteristics : BT.470-2 System B, BT.470-2 System G
Matrix coefficients : BT.470-2 System B, BT.470-2 System G
Audio #1
Идентификатор : 189 (0xBD)-128 (0x80)
Формат : AC-3
Формат/Информация : Audio Coding 3
Расширение режима : CM (complete main)
Параметр Endianness формата : Big
Режим смешивания : DVD-Video
Продолжительность : 22mn 1s
Вид битрейта : Constant
Битрейт : 384 Kbps
Каналы : 6 channels
Расположение каналов : Front: L C R, Side: L R, LFE
Частота : 48.0 KHz
Битовая глубина : 16 bits
Метод сжатия : Lossy
Размер потока : 60.5 MiB (6%)
Audio #2
Идентификатор : 189 (0xBD)-129 (0x81)
Формат : AC-3
Формат/Информация : Audio Coding 3
Расширение режима : CM (complete main)
Параметр Endianness формата : Big
Режим смешивания : DVD-Video
Продолжительность : 22mn 1s
Вид битрейта : Constant
Битрейт : 384 Kbps
Каналы : 6 channels
Расположение каналов : Front: L C R, Side: L R, LFE
Частота : 48.0 KHz
Битовая глубина : 16 bits
Метод сжатия : Lossy
Размер потока : 60.5 MiB (6%)
Text
Идентификатор : 189 (0xBD)-32 (0x20)
Формат : RLE
Формат/Информация : Run-length encoding
Режим смешивания : DVD-Video
Продолжительность : 21mn 57s
Задержка видео : 4s 40ms
Menu
General
Полное имя : D:\Документы тут\Среда обитания. Сказка о летучей лисе\VIDEO_TS\VTS_01_2.VOB
Формат : MPEG-PS
Размер файла : 1 024 MiB
Продолжительность : 20mn 6s
Режим общего битрейта : Variable
Общий поток : 7 121 Kbps
Video
Идентификатор : 224 (0xE0)
Формат : MPEG Video
Версия формата : Version 2
Профиль формата : Main@Main
Параметр BVOP формата : Yes
Параметр матрицы формата : Default
Продолжительность : 20mn 6s
Вид битрейта : Variable
Битрейт : 6 211 Kbps
Максимальный битрейт : 8 300 Kbps
Ширина : 720 pixels
Высота : 576 pixels
Соотношение сторон : 2.40:1
Частота кадров : 25.000 fps
Стандарт вещания : PAL
Цветовое пространство : YUV
Субдискретизация насыщенности : 4:2:0
Битовая глубина : 8 bits
Тип развёртки : Interlaced
Порядок развёртки : Top Field First
Метод сжатия : Lossy
Бит/(Пиксели*Кадры) : 0.599
Размер потока : 893 MiB (87%)
Color primaries : BT.470-2 System B, BT.470-2 System G
Transfer characteristics : BT.470-2 System B, BT.470-2 System G
Matrix coefficients : BT.470-2 System B, BT.470-2 System G
Audio #1
Идентификатор : 189 (0xBD)-128 (0x80)
Формат : AC-3
Формат/Информация : Audio Coding 3
Расширение режима : CM (complete main)
Параметр Endianness формата : Big
Режим смешивания : DVD-Video
Продолжительность : 20mn 6s
Вид битрейта : Constant
Битрейт : 384 Kbps
Каналы : 6 channels
Расположение каналов : Front: L C R, Side: L R, LFE
Частота : 48.0 KHz
Битовая глубина : 16 bits
Метод сжатия : Lossy
Задержка видео : -128ms
Размер потока : 55.2 MiB (5%)
Audio #2
Идентификатор : 189 (0xBD)-129 (0x81)
Формат : AC-3
Формат/Информация : Audio Coding 3
Расширение режима : CM (complete main)
Параметр Endianness формата : Big
Режим смешивания : DVD-Video
Продолжительность : 20mn 6s
Вид битрейта : Constant
Битрейт : 384 Kbps
Каналы : 6 channels
Расположение каналов : Front: L C R, Side: L R, LFE
Частота : 48.0 KHz
Битовая глубина : 16 bits
Метод сжатия : Lossy
Задержка видео : -128ms
Размер потока : 55.2 MiB (5%)
Text
Идентификатор : 189 (0xBD)-32 (0x20)
Формат : RLE
Формат/Информация : Run-length encoding
Режим смешивания : DVD-Video
Продолжительность : 20mn 2s
Задержка видео : 1s 440ms
Menu
General
Полное имя : D:\Документы тут\Среда обитания. Сказка о летучей лисе\VIDEO_TS\VTS_01_3.VOB
Формат : MPEG-PS
Размер файла : 407 MiB
Продолжительность : 7mn 53s
Режим общего битрейта : Variable
Общий поток : 7 218 Kbps
Video
Идентификатор : 224 (0xE0)
Формат : MPEG Video
Версия формата : Version 2
Профиль формата : Main@Main
Параметр BVOP формата : Yes
Параметр матрицы формата : Default
Продолжительность : 7mn 52s
Вид битрейта : Variable
Битрейт : 6 307 Kbps
Максимальный битрейт : 8 300 Kbps
Ширина : 720 pixels
Высота : 576 pixels
Соотношение сторон : 2.40:1
Частота кадров : 25.000 fps
Стандарт вещания : PAL
Цветовое пространство : YUV
Субдискретизация насыщенности : 4:2:0
Битовая глубина : 8 bits
Тип развёртки : Interlaced
Порядок развёртки : Top Field First
Метод сжатия : Lossy
Бит/(Пиксели*Кадры) : 0.608
Размер потока : 356 MiB (87%)
Color primaries : BT.470-2 System B, BT.470-2 System G
Transfer characteristics : BT.470-2 System B, BT.470-2 System G
Matrix coefficients : BT.470-2 System B, BT.470-2 System G
Audio #1
Идентификатор : 189 (0xBD)-128 (0x80)
Формат : AC-3
Формат/Информация : Audio Coding 3
Расширение режима : CM (complete main)
Параметр Endianness формата : Big
Режим смешивания : DVD-Video
Продолжительность : 7mn 52s
Вид битрейта : Constant
Битрейт : 384 Kbps
Каналы : 6 channels
Расположение каналов : Front: L C R, Side: L R, LFE
Частота : 48.0 KHz
Битовая глубина : 16 bits
Метод сжатия : Lossy
Задержка видео : -160ms
Размер потока : 21.7 MiB (5%)
Audio #2
Идентификатор : 189 (0xBD)-129 (0x81)
Формат : AC-3
Формат/Информация : Audio Coding 3
Расширение режима : CM (complete main)
Параметр Endianness формата : Big
Режим смешивания : DVD-Video
Продолжительность : 7mn 53s
Вид битрейта : Constant
Битрейт : 384 Kbps
Каналы : 6 channels
Расположение каналов : Front: L C R, Side: L R, LFE
Частота : 48.0 KHz
Битовая глубина : 16 bits
Метод сжатия : Lossy
Задержка видео : -160ms
Размер потока : 21.7 MiB (5%)
Menu
General
Полное имя : D:\Документы тут\Среда обитания. Сказка о летучей лисе\VIDEO_TS\VTS_02_0.BUP
Формат : DVD Video
Профиль формата : Program
Размер файла : 18.0 KiB
Продолжительность : 18s 600ms
Режим общего битрейта : Variable
Общий поток : 7 928 bps
Video
Идентификатор : 224 (0xE0)
Формат : MPEG Video
Версия формата : Version 2
Продолжительность : 18s 600ms
Вид битрейта : Variable
Ширина : 720 pixels
Высота : 576 pixels
Соотношение сторон : 16:9
Частота кадров : 25.000 fps
Стандарт вещания : PAL
Метод сжатия : Lossy
Audio
Идентификатор : 128 (0x80)
Формат : AC-3
Формат/Информация : Audio Coding 3
Продолжительность : 18s 600ms
Каналы : 6 channels
Частота : 48.0 KHz
Метод сжатия : Lossy
Menu #1
Продолжительность : 14s 320ms
00:00:00.000 : Chapter 1
List (Audio) : 0
Menu #2
Продолжительность : 18s 600ms
00:00:00.000 : Chapter 1
List (Audio) : 0
Menu #3
General
Полное имя : D:\Документы тут\Среда обитания. Сказка о летучей лисе\VIDEO_TS\VTS_02_0.IFO
Формат : DVD Video
Профиль формата : Program
Размер файла : 18.0 KiB
Продолжительность : 18s 600ms
Режим общего битрейта : Variable
Общий поток : 7 928 bps
Video
Идентификатор : 224 (0xE0)
Формат : MPEG Video
Версия формата : Version 2
Продолжительность : 18s 600ms
Вид битрейта : Variable
Ширина : 720 pixels
Высота : 576 pixels
Соотношение сторон : 16:9
Частота кадров : 25.000 fps
Стандарт вещания : PAL
Метод сжатия : Lossy
Audio
Идентификатор : 128 (0x80)
Формат : AC-3
Формат/Информация : Audio Coding 3
Продолжительность : 18s 600ms
Каналы : 6 channels
Частота : 48.0 KHz
Метод сжатия : Lossy
Menu #1
Продолжительность : 14s 320ms
00:00:00.000 : Chapter 1
List (Audio) : 0
Menu #2
Продолжительность : 18s 600ms
00:00:00.000 : Chapter 1
List (Audio) : 0
Menu #3
General
Полное имя : D:\Документы тут\Среда обитания. Сказка о летучей лисе\VIDEO_TS\VTS_02_0.VOB
Формат : MPEG-PS
Размер файла : 14.0 KiB
Продолжительность : 40ms
Общий поток : 2 867 Kbps
Video
Идентификатор : 224 (0xE0)
Формат : MPEG Video
Версия формата : Version 2
Профиль формата : Main@Main
Параметр BVOP формата : No
Параметр матрицы формата : Custom
Продолжительность : 40ms
Максимальный битрейт : 9 000 Kbps
Ширина : 720 pixels
Высота : 576 pixels
Соотношение сторон : 4:3
Частота кадров : 25.000 fps
Стандарт вещания : PAL
Цветовое пространство : YUV
Субдискретизация насыщенности : 4:2:0
Битовая глубина : 8 bits
Тип развёртки : Progressive
Порядок развёртки : Top Field First
Метод сжатия : Lossy
Color primaries : SMPTE 170M
Transfer characteristics : SMPTE 170M
Matrix coefficients : SMPTE 170M
Text
Идентификатор : 189 (0xBD)-32 (0x20)
Формат : RLE
Формат/Информация : Run-length encoding
Режим смешивания : DVD-Video
Menu
General
Полное имя : D:\Документы тут\Среда обитания. Сказка о летучей лисе\VIDEO_TS\VTS_02_1.VOB
Формат : MPEG-PS
Размер файла : 15.4 MiB
Продолжительность : 18s 208ms
Общий поток : 7 083 Kbps
Video
Идентификатор : 224 (0xE0)
Формат : MPEG Video
Версия формата : Version 2
Профиль формата : Main@Main
Параметр BVOP формата : Yes
Параметр матрицы формата : Default
Продолжительность : 18s 109ms
Битрейт : 6 558 Kbps
Ширина : 720 pixels
Высота : 576 pixels
Соотношение сторон : 4:3
Частота кадров : 25.000 fps
Стандарт вещания : PAL
Цветовое пространство : YUV
Субдискретизация насыщенности : 4:2:0
Битовая глубина : 8 bits
Метод сжатия : Lossy
Бит/(Пиксели*Кадры) : 0.633
Размер потока : 14.2 MiB (92%)
Color primaries : BT.470-2 System B, BT.470-2 System G
Transfer characteristics : BT.470-2 System B, BT.470-2 System G
Matrix coefficients : BT.470-2 System B, BT.470-2 System G
Audio
Идентификатор : 189 (0xBD)-128 (0x80)
Формат : AC-3
Формат/Информация : Audio Coding 3
Расширение режима : CM (complete main)
Параметр Endianness формата : Big
Режим смешивания : DVD-Video
Продолжительность : 18s 208ms
Вид битрейта : Constant
Битрейт : 384 Kbps
Каналы : 6 channels
Расположение каналов : Front: L C R, Side: L R, LFE
Частота : 48.0 KHz
Битовая глубина : 16 bits
Метод сжатия : Lossy
Задержка видео : -71ms
Размер потока : 854 KiB (5%)
Menu

Скриншоты



[Profile]  [PM] 
Display posts:    
Reply to topic

Current time is: 17-Sep 22:54

All times are UTC + 2



You cannot post new topics in this forum
You cannot reply to topics in this forum
You cannot edit your posts in this forum
You cannot delete your posts in this forum
You cannot vote in polls in this forum
You cannot attach files in this forum
You cannot download files in this forum