Марш к Победе. Дорога на Токио / March To Victory. Road to Tokyo (1-3 серии из 13 + бонус) (Эдвард Фойерхерд / Edward Feuerherd) [2006, Документальный, война, история, DVD9 (Custom)]

Reply to topic
 
Author
Message

Atila ®

Gender: Unknown

Longevity: 7 years 4 months

Posts: 2497

Reputation: 0 [+] [-]

Atila · Post 22-Jun-2014 00:25

[Quote] 

Марш к Победе. Дорога на Токио / March To Victory. Road to Tokyo
Год выпуска: 2006
Страна: США
Жанр: Документальный, война, история
Продолжительность: 3 х ~ 00:45:10
Перевод: Одноголосый закадровый
Русские субтитры: нет
Режиссер: Эдвард Фойерхерд / Edward Feuerherd
Описание: Документальный сериал о войне на Тихом океане между 1941 и 1945 годами. Этот театр боевых действий охватывал площадь в десятки тысяч миль. Захватывая остров за островом, ведя бои в густых джунглях и на голых вулканических островах, в результате упорных ожесточенных воздушно-морских сражений, союзники приближались к границам Японии. В сериале присутствуют редкие кадры кинохроники и интервью участников событий. Цикл фильмов «Марш к Победе» состоит из трех сериалов: «Дорога на Рим», «Дорога на Токио» и «Дорога на Берлин».
Доп. информация: Издание чешское. Русская дорога взята отсюда http://torrentsland.com.ua/forum/viewtopic.php?t=4652522, спасибо Alf62. Работа со звуком kiruha1974. Также спасибо. Точки перехода на второй слой есть.

Список серий

01. Восходящее солнце / Rising Sun
02. Перл-Харбор / Pearl Harbor
03. Черные дни/ Dark Days
04. Гуадалканал и Соломоновы острова / Guadalcanal & the Solomons
05. Новая Гвинея / New Guinea
06. Тарава / Tarawa
07. Кваджалейн / Kwajalein
08. Бирма / Burma
09. Сайпан и Тиниан / Saipan & Tinian
10. Остров Пелелиу / Peleliu
11. Лусон / Luzon
12. Иводзима / Iwo Jima
13. Окинава / Okinawa
14. Дополнительные материалы / Bonus Material.
Используемое ПО:
PGCDemux (извлечение).
BeSweet, Sony Vegas 9 (звук).
MuxMan (сборка).
VobBlanker (финал)
Бонусы: Фотогалереи, реклама фильмов на ДВД.
Меню: есть, анимировано, озвучено.
Главы (разбивка по трекам): есть
Качество: DVD9 (Custom)
Формат: DVD Video
Видео кодек: MPEG2
Аудио кодек: AC3
Видео: PAL 4:3 (720x576) VBR, ~ 8020.40 kbps
Аудио 1: Russian (Dolby AC3, 2 ch, 192 kbps)
Аудио 2: Czech (Dolby AC3, 2 ch, 448 kbps )

DVDInfo

Size: 7.62 Gb ( 7 987 150,00 KBytes ) - DVD-9Enabled regions: 1, 2, 3, 4, 5, 6, 7, 8
VTS_01 : Play Length: 00:45:03+00:00:00+00:45:02+{00:00:00}+00:45:03+{00:00:00}+{00:00:00} Video: PAL 4:3 (720x576) VBR Audio: Russian, AC3, 2/0 (L,R) ch, 192 kbps, Delay 0 mSec Czech(Ceske), AC3, 2/0 (L,R) ch, 448 kbps, Delay 0 mSec
VTS_02 : Play Length: 00:02:01+00:00:00 Video: PAL 4:3 (720x576) VBR Audio: Czech(Ceske) (Dolby AC3, 2 ch)
VTS_03 : Play Length: 00:00:00 Video: PAL 4:3 (720x576) VBR Audio: Not specified (Dolby AC3, 1 ch)
* Menus Information *
VIDEO_TS MenuVideo: PAL 4:3 (720x576) VBRAudio: Not specified (Dolby AC3, 2 ch)Czech(Ceske) Language Unit : Title Menu
VTS_01 MenuVideo: PAL 4:3 (720x576) VBRAudio: Not specified (Dolby AC3, 2 ch)Czech(Ceske) Language Unit : Root Menu Chapter (PTT) Menu
VTS_02 MenuVideo: PAL 4:3 (720x576) VBR Auto Pan&Scan, Auto LetterboxedAudio: Not specified (Dolby AC3, 1 ch)Czech(Ceske) Language Unit : Root Menu
VTS_03 MenuVideo: PAL 4:3 (720x576) VBRAudio: Not specified (Dolby AC3, 2 ch)Czech(Ceske) Language Unit : Root Menu

MediaInfo

Формат                                   : MPEG-PSРазмер файла                             : 1024 МбайтПродолжительность                        : 18 м.Режим общего битрейта                    : ПеременныйОбщий поток                              : 7771 Кбит/сек
ВидеоИдентификатор : 224 (0xE0)Формат : MPEG VideoВерсия формата : Version 2Профиль формата : Main@MainПараметр BVOP формата : ДаПараметр матрицы формата : ВыборочнаяПараметр GOP формата : M=3, N=9Продолжительность : 18 м.Вид битрейта : ПеременныйБитрейт : 6976 Кбит/секМаксимальный битрейт : 9800 Кбит/секШирина : 720 пикселейВысота : 576 пикселейСоотношение сторон : 4:3Частота кадров : 25,000 кадров/секСтандарт вещания : PALЦветовое пространство : YUVСубдискретизация насыщенности : 4:2:0Битовая глубина : 8 битТип развёртки : ЧересстрочнаяПорядок развёртки : Верхнее поле первоеМетод сжатия : С потерямиБит/(Пиксели*Кадры) : 0.673Временной код первого кадра : 00:18:41:00Оригинал временного кода : Group of pictures headerРазмер потока : 919 Мбайт (90%)
Аудио #1Идентификатор : 189 (0xBD)-128 (0x80)Формат : AC-3Формат/Информация : Audio Coding 3Расширение режима : CM (complete main)Параметр Endianness формата : BigРежим смешивания : DVD-VideoПродолжительность : 18 м.Вид битрейта : ПостоянныйБитрейт : 192 Кбит/секКаналы : 2 каналаРасположение каналов : Front: L RЧастота : 48,0 КГцБитовая глубина : 16 битМетод сжатия : С потерямиЗадержка видео : -168 мс.Размер потока : 25,3 Мбайт (2%)
Аудио #2Идентификатор : 189 (0xBD)-129 (0x81)Формат : AC-3Формат/Информация : Audio Coding 3Расширение режима : CM (complete main)Параметр Endianness формата : BigРежим смешивания : DVD-VideoПродолжительность : 18 м.Вид битрейта : ПостоянныйБитрейт : 448 Кбит/секКаналы : 2 каналаРасположение каналов : Front: L RЧастота : 48,0 КГцБитовая глубина : 16 битМетод сжатия : С потерямиЗадержка видео : -264 мс.Размер потока : 59,0 Мбайт (6%)
Меню

Скриншоты меню

Скриншоты

Как качать при обновлении новые диски, не перекачивая старые

Внимание! Раздача ведётся путём добавления новых серий; при каждом добавлении создётся новый торрент. Чтобы начать докачку новой серии, пользователям необходимо сделать следующее:
(1) остановить скачивание,
(2) удалить старый торрент у себя из клиента (старые серии удалять не надо),
(3) скачать новый торрент и запустить его у себя в клиенте вместо старого, при этом указать клиенту путь в старую папку куда и должно происходить скачивание новых серий.
Ваш клиент при этом должен произвести хеширование (проверку) старой папки (если не производит сам - помогите ему сделать это), и будет докачивать только те серии которых у вас ещё нет. Старые серии при этом не удаляются, а продолжают раздаваться!
Eсли вы уже удалили старые серии, то предотвратить повторную закачку старых серий можно, отжав галочку в соответсвующих местах при запуске нового торрента. По возможности, желательно не удалять старые серии как можно дольше чтобы релизёр не столько продолжал раздавать старые серии, а смог сконцентрироваться на новых
Раздача ведётся путём добавления новых серий.
[Profile]  [PM] 
Display posts:    
Reply to topic

Current time is: 17-Oct 20:27

All times are UTC + 2



You cannot post new topics in this forum
You cannot reply to topics in this forum
You cannot edit your posts in this forum
You cannot delete your posts in this forum
You cannot vote in polls in this forum
You cannot attach files in this forum
You cannot download files in this forum