Романовы. История Российской династии 1613-1917 (8 серий) (Маким Беспалый) [2013 г., Исторический, 4xDVD5]

Reply to topic
 
Author
Message

Atila ®

Gender: Unknown

Longevity: 7 years 4 months

Posts: 2497

Reputation: 0 [+] [-]

Atila · Post 13-Aug-2014 00:25

[Quote] 

Романовы. История Российской династии 1613-1917. Диски 1-2
Год выпуска: 2013
Страна: Россия
Жанр: Исторический
Продолжительность: 4 ~ 03:00:00
Перевод: Не требуется
Русские субтитры: нет
Режиссер: М. Беспалый
Описание: Уникальный по форме проект, приуроченный к 400-летию воцарения на Руси Дома Романовых, который сочетает в себе элементы и игрового, и документального кино, информационной графики и анимации. История расскажет о том, что представляло собой русское Самодержавие как система управления, каковы ее достатки и преимущества, какую роль Монархи Дома Романовых играли в событиях российской и мировой истории. При помощи графики создается максимально исторически-достоверная картина, которая погружает зрителя в атмосферу и ощущение времени и позволяет увидеть Царя глазами современников.
Доп. информация: Данное DVD-издание предназначено для просмотра в младших классах школ, поэтому некоторые серии (начиная с 4-ой) по сравнению с HD-релизом является сокращенными в отношении домыслов о личной жизни (похождениях) Царствовавших Императоров и Императриц. Тем не менее, издание выкладывается на трекере ввиду отсутствия аналогичного нецензурированного DVD-издания. С исходников декриптером снята региональная защита на седьмой регион.
Бонусы: Отсутствуют.
Меню: Имеется, русский, анимированное, динамичное, озвученное
Сэмпл: https://www.sendspace.com/file/r1b092

Описания, характеристики и скриншоты

Диск 1. Фильмы 1-2

1. Михаил Фёдорович. Алексей Михайлович
Михаилу Фeдоровичу было всего 16 лет, когда он взошeл на престол. Его призвали на Царство в разгар гражданской войны. Страна была охвачена голодом и разрухой. Под вопросом было само существование Российского Государства. Именно Михаил Федорович смог дать народу мир, а стране процветание и благополучие, установив прочную централизованную власть. Вслед за ним на престол взошел его сын, Алексей Михайлович Романов, которого с раннего детства готовили к царствованию. Его называли "тишайшим", однако его правление вовсе не было таковым.
2. Фёдор Алексеевич. Софья Алексеевна
Фёдор Алексеевич правил всего шесть лет. Слабость здоровья не помешала ему изменить не только царский двор, но и страну: на заседаниях Боярской Думы зачитывали обзоры западной прессы, при дворе начали брить бороды и носить европейские платья. После смерти бездетного Фёдора Алексеевича, его сестра Софья Алексеевна, не имевшая возможности легально взойти на престол, всe-таки находит лазейку, и начинает свое правление государством.
Главы (разбивка по трекам): есть
Качество: DVD5
Формат: DVD Video
Видео кодек: MPEG2
Аудио кодек: AC3
Видео: VBR~ 4968-5182 Кбит/сек, 720*576 (16:9), в 25,000 кадров/сек, MPEG2
Аудио: Русский, 192 Кбит/сек, 48,0 КГц, 16 бит, 2 канала, AC-3

DVDInfo

Title: Data2Size: 4.16 Gb ( 4 359 414 KBytes ) - DVD-5Enabled regions: 1, 2, 3, 4, 5, 6, 7, 8
VTS_01 : Play Length: 00:51:03 Video: PAL 16:9 (720x576) VBR, Auto Pan&Scan Audio: Russian (Dolby AC3, 2 ch)
VTS_02 : Play Length: 00:51:33 Video: PAL 16:9 (720x576) VBR, Auto Pan&Scan Audio: Russian (Dolby AC3, 2 ch)
Menu Video: PAL 4:3 (720x576) VBRMenu Subtitles: Not specifiedMenu English Language Unit : Root Menu

MediaInfo

ОбщееПолное имя                               : F:\MONAR.RU\Видео\История России и мира\Романовы. История Российской династии 1613-1917\Диск 1. Фильмы 1-2\VIDEO_TS\VIDEO_TS.BUPФормат                                   : DVD VideoПрофиль формата                          : MenuРазмер файла                             : 14,0 КбайтРежим общего битрейта                    : Переменный
ВидеоИдентификатор : 224 (0xE0)Формат : MPEG VideoВерсия формата : Version 2Вид битрейта : ПеременныйШирина : 720 пикселейВысота : 576 пикселейСоотношение сторон : 4:3Частота кадров : 25,000 кадров/секСтандарт вещания : PALМетод сжатия : С потерями
ТекстФормат : RLEФормат/Информация : Run-length encodingБитовая глубина : 2 бит
ОбщееПолное имя : F:\MONAR.RU\Видео\История России и мира\Романовы. История Российской династии 1613-1917\Диск 1. Фильмы 1-2\VIDEO_TS\VIDEO_TS.IFOФормат : DVD VideoПрофиль формата : MenuРазмер файла : 14,0 КбайтРежим общего битрейта : Переменный
ВидеоИдентификатор : 224 (0xE0)Формат : MPEG VideoВерсия формата : Version 2Вид битрейта : ПеременныйШирина : 720 пикселейВысота : 576 пикселейСоотношение сторон : 4:3Частота кадров : 25,000 кадров/секСтандарт вещания : PALМетод сжатия : С потерями
ТекстФормат : RLEФормат/Информация : Run-length encodingБитовая глубина : 2 бит
ОбщееПолное имя : F:\MONAR.RU\Видео\История России и мира\Романовы. История Российской династии 1613-1917\Диск 1. Фильмы 1-2\VIDEO_TS\VIDEO_TS.VOBФормат : MPEG-PSРазмер файла : 26,0 МбайтПродолжительность : 30 с.Режим общего битрейта : ПеременныйОбщий поток : 7091 Кбит/сек
ВидеоИдентификатор : 224 (0xE0)Формат : MPEG VideoВерсия формата : Version 2Профиль формата : Main@MainПараметр BVOP формата : ДаПараметр матрицы формата : По умолчаниюПараметр GOP формата : M=3, N=12Продолжительность : 30 с.Вид битрейта : ПеременныйБитрейт : 6950 Кбит/секМаксимальный битрейт : 9008 Кбит/секШирина : 720 пикселейВысота : 576 пикселейСоотношение сторон : 4:3Частота кадров : 25,000 кадров/секСтандарт вещания : PALЦветовое пространство : YUVСубдискретизация насыщенности : 4:2:0Битовая глубина : 8 битТип развёртки : ПрогрессивнаяМетод сжатия : С потерямиБит/(Пиксели*Кадры) : 0.670Временной код первого кадра : 00:00:00:00Оригинал временного кода : Group of pictures headerРазмер потока : 25,5 Мбайт (98%)
Меню
ОбщееПолное имя : F:\MONAR.RU\Видео\История России и мира\Романовы. История Российской династии 1613-1917\Диск 1. Фильмы 1-2\VIDEO_TS\VTS_01_0.BUPФормат : DVD VideoПрофиль формата : ProgramРазмер файла : 52,0 КбайтПродолжительность : 51 м.Режим общего битрейта : ПеременныйОбщий поток : 139 бит/сек
ВидеоИдентификатор : 224 (0xE0)Формат : MPEG VideoВерсия формата : Version 2Продолжительность : 51 м.Вид битрейта : ПеременныйШирина : 720 пикселейВысота : 576 пикселейСоотношение сторон : 16:9Частота кадров : 25,000 кадров/секСтандарт вещания : PALМетод сжатия : С потерями
АудиоИдентификатор : 128 (0x80)Формат : AC-3Формат/Информация : Audio Coding 3Продолжительность : 51 м.Каналы : 2 каналаЧастота : 48,0 КГцМетод сжатия : С потерямиЯзык : Russian
МенюПродолжительность : 51 м.00:00:00.000 : Chapter 100:05:00.040 : Chapter 200:10:00.160 : Chapter 300:15:00.200 : Chapter 400:20:00.240 : Chapter 500:25:00.280 : Chapter 600:30:00.320 : Chapter 700:35:00.360 : Chapter 800:40:00.400 : Chapter 900:45:00.440 : Chapter 1000:50:00.480 : Chapter 11List (Audio) : 0
ОбщееПолное имя : F:\MONAR.RU\Видео\История России и мира\Романовы. История Российской династии 1613-1917\Диск 1. Фильмы 1-2\VIDEO_TS\VTS_01_0.IFOФормат : DVD VideoПрофиль формата : ProgramРазмер файла : 52,0 КбайтПродолжительность : 51 м.Режим общего битрейта : ПеременныйОбщий поток : 139 бит/сек
ВидеоИдентификатор : 224 (0xE0)Формат : MPEG VideoВерсия формата : Version 2Продолжительность : 51 м.Вид битрейта : ПеременныйШирина : 720 пикселейВысота : 576 пикселейСоотношение сторон : 16:9Частота кадров : 25,000 кадров/секСтандарт вещания : PALМетод сжатия : С потерями
АудиоИдентификатор : 128 (0x80)Формат : AC-3Формат/Информация : Audio Coding 3Продолжительность : 51 м.Каналы : 2 каналаЧастота : 48,0 КГцМетод сжатия : С потерямиЯзык : Russian
МенюПродолжительность : 51 м.00:00:00.000 : Chapter 100:05:00.040 : Chapter 200:10:00.160 : Chapter 300:15:00.200 : Chapter 400:20:00.240 : Chapter 500:25:00.280 : Chapter 600:30:00.320 : Chapter 700:35:00.360 : Chapter 800:40:00.400 : Chapter 900:45:00.440 : Chapter 1000:50:00.480 : Chapter 11List (Audio) : 0
ОбщееПолное имя : F:\MONAR.RU\Видео\История России и мира\Романовы. История Российской династии 1613-1917\Диск 1. Фильмы 1-2\VIDEO_TS\VTS_01_0.VOBФормат : MPEG-PSРазмер файла : 134 МбайтПродолжительность : 30 с.Режим общего битрейта : ПеременныйОбщий поток : 36,5 Мбит/сек
ВидеоИдентификатор : 224 (0xE0)Формат : MPEG VideoВерсия формата : Version 2Профиль формата : Main@MainПараметр BVOP формата : ДаПараметр матрицы формата : По умолчаниюПараметр GOP формата : M=3, N=12Продолжительность : 30 с.Вид битрейта : ПеременныйБитрейт : 35,6 Мбит/секМаксимальный битрейт : 9008 Кбит/секШирина : 720 пикселейВысота : 576 пикселейСоотношение сторон : 4:3Частота кадров : 25,000 кадров/секСтандарт вещания : PALЦветовое пространство : YUVСубдискретизация насыщенности : 4:2:0Битовая глубина : 8 битТип развёртки : ПрогрессивнаяМетод сжатия : С потерямиБит/(Пиксели*Кадры) : 3.436Временной код первого кадра : 00:00:00:00Оригинал временного кода : Group of pictures headerРазмер потока : 130 Мбайт (97%)
АудиоИдентификатор : 189 (0xBD)-128 (0x80)Формат : AC-3Формат/Информация : Audio Coding 3Расширение режима : CM (complete main)Параметр Endianness формата : BigРежим смешивания : DVD-VideoПродолжительность : 30 с.Вид битрейта : ПостоянныйБитрейт : 192 Кбит/секКаналы : 2 каналаРасположение каналов : Front: L RЧастота : 48,0 КГцБитовая глубина : 16 битМетод сжатия : С потерямиРазмер потока : 716 Кбайт (1%)
ТекстИдентификатор : 189 (0xBD)-32 (0x20)Формат : RLEФормат/Информация : Run-length encodingРежим смешивания : DVD-VideoЗадержка видео : 5 с. 360 мс.
Меню
ОбщееПолное имя : F:\MONAR.RU\Видео\История России и мира\Романовы. История Российской династии 1613-1917\Диск 1. Фильмы 1-2\VIDEO_TS\VTS_01_1.VOBФормат : MPEG-PSРазмер файла : 1024 МбайтПродолжительность : 27 м.Режим общего битрейта : ПеременныйОбщий поток : 5265 Кбит/сек
ВидеоИдентификатор : 224 (0xE0)Формат : MPEG VideoВерсия формата : Version 2Профиль формата : Main@MainПараметр BVOP формата : ДаПараметр матрицы формата : По умолчаниюПараметр GOP формата : M=3, N=13Продолжительность : 27 м.Вид битрейта : ПеременныйБитрейт : 4968 Кбит/секМаксимальный битрейт : 9008 Кбит/секШирина : 720 пикселейВысота : 576 пикселейСоотношение сторон : 16:9Частота кадров : 25,000 кадров/секСтандарт вещания : PALЦветовое пространство : YUVСубдискретизация насыщенности : 4:2:0Битовая глубина : 8 битТип развёртки : ПрогрессивнаяМетод сжатия : С потерямиБит/(Пиксели*Кадры) : 0.479Временной код первого кадра : 00:00:00:00Оригинал временного кода : Group of pictures headerРазмер потока : 966 Мбайт (94%)
АудиоИдентификатор : 189 (0xBD)-128 (0x80)Формат : AC-3Формат/Информация : Audio Coding 3Расширение режима : CM (complete main)Параметр Endianness формата : BigРежим смешивания : DVD-VideoПродолжительность : 27 м.Вид битрейта : ПостоянныйБитрейт : 192 Кбит/секКаналы : 2 каналаРасположение каналов : Front: L RЧастота : 48,0 КГцБитовая глубина : 16 битМетод сжатия : С потерямиРазмер потока : 37,3 Мбайт (4%)
Меню
ОбщееПолное имя : F:\MONAR.RU\Видео\История России и мира\Романовы. История Российской династии 1613-1917\Диск 1. Фильмы 1-2\VIDEO_TS\VTS_01_2.VOBФормат : MPEG-PSРазмер файла : 936 МбайтПродолжительность : 23 м.Режим общего битрейта : ПеременныйОбщий поток : 5480 Кбит/сек
ВидеоИдентификатор : 224 (0xE0)Формат : MPEG VideoВерсия формата : Version 2Профиль формата : Main@MainПараметр BVOP формата : ДаПараметр матрицы формата : По умолчаниюПараметр GOP формата : M=3, N=13Продолжительность : 23 м.Вид битрейта : ПеременныйБитрейт : 5179 Кбит/секМаксимальный битрейт : 9008 Кбит/секШирина : 720 пикселейВысота : 576 пикселейСоотношение сторон : 16:9Частота кадров : 25,000 кадров/секСтандарт вещания : PALЦветовое пространство : YUVСубдискретизация насыщенности : 4:2:0Битовая глубина : 8 битТип развёртки : ПрогрессивнаяМетод сжатия : С потерямиБит/(Пиксели*Кадры) : 0.500Временной код первого кадра : 00:27:08:07Оригинал временного кода : Group of pictures headerРазмер потока : 884 Мбайт (94%)
АудиоИдентификатор : 189 (0xBD)-128 (0x80)Формат : AC-3Формат/Информация : Audio Coding 3Расширение режима : CM (complete main)Параметр Endianness формата : BigРежим смешивания : DVD-VideoПродолжительность : 23 м.Вид битрейта : ПостоянныйБитрейт : 192 Кбит/секКаналы : 2 каналаРасположение каналов : Front: L RЧастота : 48,0 КГцБитовая глубина : 16 битМетод сжатия : С потерямиЗадержка видео : -544 мс.Размер потока : 32,8 Мбайт (4%)
Меню
ОбщееПолное имя : F:\MONAR.RU\Видео\История России и мира\Романовы. История Российской династии 1613-1917\Диск 1. Фильмы 1-2\VIDEO_TS\VTS_02_0.BUPФормат : DVD VideoПрофиль формата : ProgramРазмер файла : 54,0 КбайтПродолжительность : 51 м.Режим общего битрейта : ПеременныйОбщий поток : 143 бит/сек
ВидеоИдентификатор : 224 (0xE0)Формат : MPEG VideoВерсия формата : Version 2Продолжительность : 51 м.Вид битрейта : ПеременныйШирина : 720 пикселейВысота : 576 пикселейСоотношение сторон : 16:9Частота кадров : 25,000 кадров/секСтандарт вещания : PALМетод сжатия : С потерями
АудиоИдентификатор : 128 (0x80)Формат : AC-3Формат/Информация : Audio Coding 3Продолжительность : 51 м.Каналы : 2 каналаЧастота : 48,0 КГцМетод сжатия : С потерямиЯзык : Russian
МенюПродолжительность : 51 м.00:00:00.000 : Chapter 100:05:00.040 : Chapter 200:10:00.080 : Chapter 300:15:00.120 : Chapter 400:20:00.160 : Chapter 500:25:00.200 : Chapter 600:30:00.240 : Chapter 700:35:00.280 : Chapter 800:40:00.320 : Chapter 900:45:00.360 : Chapter 1000:50:00.400 : Chapter 11List (Audio) : 0
ОбщееПолное имя : F:\MONAR.RU\Видео\История России и мира\Романовы. История Российской династии 1613-1917\Диск 1. Фильмы 1-2\VIDEO_TS\VTS_02_0.IFOФормат : DVD VideoПрофиль формата : ProgramРазмер файла : 54,0 КбайтПродолжительность : 51 м.Режим общего битрейта : ПеременныйОбщий поток : 143 бит/сек
ВидеоИдентификатор : 224 (0xE0)Формат : MPEG VideoВерсия формата : Version 2Продолжительность : 51 м.Вид битрейта : ПеременныйШирина : 720 пикселейВысота : 576 пикселейСоотношение сторон : 16:9Частота кадров : 25,000 кадров/секСтандарт вещания : PALМетод сжатия : С потерями
АудиоИдентификатор : 128 (0x80)Формат : AC-3Формат/Информация : Audio Coding 3Продолжительность : 51 м.Каналы : 2 каналаЧастота : 48,0 КГцМетод сжатия : С потерямиЯзык : Russian
МенюПродолжительность : 51 м.00:00:00.000 : Chapter 100:05:00.040 : Chapter 200:10:00.080 : Chapter 300:15:00.120 : Chapter 400:20:00.160 : Chapter 500:25:00.200 : Chapter 600:30:00.240 : Chapter 700:35:00.280 : Chapter 800:40:00.320 : Chapter 900:45:00.360 : Chapter 1000:50:00.400 : Chapter 11List (Audio) : 0
ОбщееПолное имя : F:\MONAR.RU\Видео\История России и мира\Романовы. История Российской династии 1613-1917\Диск 1. Фильмы 1-2\VIDEO_TS\VTS_02_0.VOBФормат : MPEG-PSРазмер файла : 136 МбайтПродолжительность : 30 с.Режим общего битрейта : ПеременныйОбщий поток : 37,1 Мбит/сек
ВидеоИдентификатор : 224 (0xE0)Формат : MPEG VideoВерсия формата : Version 2Профиль формата : Main@MainПараметр BVOP формата : ДаПараметр матрицы формата : По умолчаниюПараметр GOP формата : M=3, N=12Продолжительность : 30 с.Вид битрейта : ПеременныйБитрейт : 36,1 Мбит/секМаксимальный битрейт : 9008 Кбит/секШирина : 720 пикселейВысота : 576 пикселейСоотношение сторон : 4:3Частота кадров : 25,000 кадров/секСтандарт вещания : PALЦветовое пространство : YUVСубдискретизация насыщенности : 4:2:0Битовая глубина : 8 битТип развёртки : ПрогрессивнаяМетод сжатия : С потерямиБит/(Пиксели*Кадры) : 3.485Временной код первого кадра : 00:00:00:00Оригинал временного кода : Group of pictures headerРазмер потока : 132 Мбайт (97%)
АудиоИдентификатор : 189 (0xBD)-128 (0x80)Формат : AC-3Формат/Информация : Audio Coding 3Расширение режима : CM (complete main)Параметр Endianness формата : BigРежим смешивания : DVD-VideoПродолжительность : 30 с.Вид битрейта : ПостоянныйБитрейт : 192 Кбит/секКаналы : 2 каналаРасположение каналов : Front: L RЧастота : 48,0 КГцБитовая глубина : 16 битМетод сжатия : С потерямиРазмер потока : 716 Кбайт (1%)
ТекстИдентификатор : 189 (0xBD)-32 (0x20)Формат : RLEФормат/Информация : Run-length encodingРежим смешивания : DVD-VideoЗадержка видео : 5 с. 360 мс.
Меню
ОбщееПолное имя : F:\MONAR.RU\Видео\История России и мира\Романовы. История Российской династии 1613-1917\Диск 1. Фильмы 1-2\VIDEO_TS\VTS_02_1.VOBФормат : MPEG-PSРазмер файла : 1024 МбайтПродолжительность : 26 м.Режим общего битрейта : ПеременныйОбщий поток : 5483 Кбит/сек
ВидеоИдентификатор : 224 (0xE0)Формат : MPEG VideoВерсия формата : Version 2Профиль формата : Main@MainПараметр BVOP формата : ДаПараметр матрицы формата : По умолчаниюПараметр GOP формата : M=3, N=13Продолжительность : 26 м.Вид битрейта : ПеременныйБитрейт : 5182 Кбит/секМаксимальный битрейт : 9008 Кбит/секШирина : 720 пикселейВысота : 576 пикселейСоотношение сторон : 16:9Частота кадров : 25,000 кадров/секСтандарт вещания : PALЦветовое пространство : YUVСубдискретизация насыщенности : 4:2:0Битовая глубина : 8 битТип развёртки : ПрогрессивнаяМетод сжатия : С потерямиБит/(Пиксели*Кадры) : 0.500Временной код первого кадра : 00:00:00:00Оригинал временного кода : Group of pictures headerРазмер потока : 968 Мбайт (95%)
АудиоИдентификатор : 189 (0xBD)-128 (0x80)Формат : AC-3Формат/Информация : Audio Coding 3Расширение режима : CM (complete main)Параметр Endianness формата : BigРежим смешивания : DVD-VideoПродолжительность : 26 м.Вид битрейта : ПостоянныйБитрейт : 192 Кбит/секКаналы : 2 каналаРасположение каналов : Front: L RЧастота : 48,0 КГцБитовая глубина : 16 битМетод сжатия : С потерямиРазмер потока : 35,9 Мбайт (4%)
Меню
ОбщееПолное имя : F:\MONAR.RU\Видео\История России и мира\Романовы. История Российской династии 1613-1917\Диск 1. Фильмы 1-2\VIDEO_TS\VTS_02_2.VOBФормат : MPEG-PSРазмер файла : 978 МбайтПродолжительность : 25 м.Режим общего битрейта : ПеременныйОбщий поток : 5372 Кбит/сек
ВидеоИдентификатор : 224 (0xE0)Формат : MPEG VideoВерсия формата : Version 2Профиль формата : Main@MainПараметр BVOP формата : ДаПараметр матрицы формата : По умолчаниюПараметр GOP формата : M=3, N=13Продолжительность : 25 м.Вид битрейта : ПеременныйБитрейт : 5073 Кбит/секМаксимальный битрейт : 9008 Кбит/секШирина : 720 пикселейВысота : 576 пикселейСоотношение сторон : 16:9Частота кадров : 25,000 кадров/секСтандарт вещания : PALЦветовое пространство : YUVСубдискретизация насыщенности : 4:2:0Битовая глубина : 8 битТип развёртки : ПрогрессивнаяМетод сжатия : С потерямиБит/(Пиксели*Кадры) : 0.489Временной код первого кадра : 00:26:06:19Оригинал временного кода : Group of pictures headerРазмер потока : 923 Мбайт (94%)
АудиоИдентификатор : 189 (0xBD)-128 (0x80)Формат : AC-3Формат/Информация : Audio Coding 3Расширение режима : CM (complete main)Параметр Endianness формата : BigРежим смешивания : DVD-VideoПродолжительность : 25 м.Вид битрейта : ПостоянныйБитрейт : 192 Кбит/секКаналы : 2 каналаРасположение каналов : Front: L RЧастота : 48,0 КГцБитовая глубина : 16 битМетод сжатия : С потерямиЗадержка видео : -296 мс.Размер потока : 34,9 Мбайт (4%)
Меню

Скриншоты меню

Скриншоты

Анаморфированные скриншоты

Диск

Диск 2. Фильмы 3-4

3. Пётр I. Екатерина Алексеевна
Петр I от рождения имел деятельную натуру и взрывной темперамент. Всю свою жизнь Петр Первый Великий шел против ветра. Все его победы были вопреки - традициям, обычаям, ожиданиям, здравому смыслу, порой даже законам физики. Царь был одинок: иностранцы, от которых он ждал совета и помощи,
зачастую оказывались недоброжелателями, лучший друг Меншиков разворовывал казну. Но за время его правления произошли радикальные преобразования в стране и в армии, появился великий русский флот. Постоянные походы и бесконечная работа сильно подорвали здоровье Петра, в последние годы он сильно болел. После смерти Царя, трон перешел его жене Екатерине Алексеевне, которая стала первой женщиной на русском престоле.
4. Пётр II. Анна Иоанновна. Елизавета Петровна
После смерти Петра I развернулась ожесточенная борьба за русский престол. Петр II оказался ленивым неучем и не вмешивался в государственные дела. Сменившая его Анна Иоанновна, согласно подписанной ей "Кондиции", ограничила свои права в правлении империей, но всего через месяц разорвала тот же документ и показала всем, кто именно правит страной. После еe смерти российский престол занимает Елизавета Петровна, дочь Петра I. При поддержке всего одной роты гвардейцев она провозгласила себя новой Императрицей. Именно она совершила невиданное для России дело - отменила смертную казнь. Страна возвращалась к петровским преобразованиям.
Главы (разбивка по трекам): есть
Качество: DVD5
Формат: DVD Video
Видео кодек: MPEG2
Аудио кодек: AC3
Видео: VBR ~ 5062-5095 Кбит/сек, 720*576 (16:9), в 25,000 кадров/сек, MPEG2
Аудио: Русский, 192 Кбит/сек, 48,0 КГц, 16 бит, 2 канала, AC-3

DVDInfo

Title: Data2Size: 3.87 Gb ( 4 053 398 KBytes ) - DVD-5Enabled regions: 1, 2, 3, 4, 5, 6, 7, 8
VTS_01 : Play Length: 00:47:59 Video: PAL 16:9 (720x576) VBR, Auto Pan&Scan Audio: Russian (Dolby AC3, 2 ch)
VTS_02 : Play Length: 00:47:06 Video: PAL 16:9 (720x576) VBR, Auto Pan&Scan Audio: Russian (Dolby AC3, 2 ch)
Menu Video: PAL 4:3 (720x576) VBRMenu Subtitles: Not specifiedMenu English Language Unit : Root Menu

MediaInfo

ОбщееПолное имя                               : F:\MONAR.RU\Видео\История России и мира\Романовы. История Российской династии 1613-1917\Диск 2. Фильмы 3-4\VIDEO_TS\VIDEO_TS.BUPФормат                                   : DVD VideoПрофиль формата                          : MenuРазмер файла                             : 14,0 КбайтРежим общего битрейта                    : Переменный
ВидеоИдентификатор : 224 (0xE0)Формат : MPEG VideoВерсия формата : Version 2Вид битрейта : ПеременныйШирина : 720 пикселейВысота : 576 пикселейСоотношение сторон : 4:3Частота кадров : 25,000 кадров/секСтандарт вещания : PALМетод сжатия : С потерями
ТекстФормат : RLEФормат/Информация : Run-length encodingБитовая глубина : 2 бит
ОбщееПолное имя : F:\MONAR.RU\Видео\История России и мира\Романовы. История Российской династии 1613-1917\Диск 2. Фильмы 3-4\VIDEO_TS\VIDEO_TS.IFOФормат : DVD VideoПрофиль формата : MenuРазмер файла : 14,0 КбайтРежим общего битрейта : Переменный
ВидеоИдентификатор : 224 (0xE0)Формат : MPEG VideoВерсия формата : Version 2Вид битрейта : ПеременныйШирина : 720 пикселейВысота : 576 пикселейСоотношение сторон : 4:3Частота кадров : 25,000 кадров/секСтандарт вещания : PALМетод сжатия : С потерями
ТекстФормат : RLEФормат/Информация : Run-length encodingБитовая глубина : 2 бит
ОбщееПолное имя : F:\MONAR.RU\Видео\История России и мира\Романовы. История Российской династии 1613-1917\Диск 2. Фильмы 3-4\VIDEO_TS\VIDEO_TS.VOBФормат : MPEG-PSРазмер файла : 26,3 МбайтПродолжительность : 30 с.Режим общего битрейта : ПеременныйОбщий поток : 7177 Кбит/сек
ВидеоИдентификатор : 224 (0xE0)Формат : MPEG VideoВерсия формата : Version 2Профиль формата : Main@MainПараметр BVOP формата : ДаПараметр матрицы формата : По умолчаниюПараметр GOP формата : M=3, N=12Продолжительность : 30 с.Вид битрейта : ПеременныйБитрейт : 7034 Кбит/секМаксимальный битрейт : 9008 Кбит/секШирина : 720 пикселейВысота : 576 пикселейСоотношение сторон : 4:3Частота кадров : 25,000 кадров/секСтандарт вещания : PALЦветовое пространство : YUVСубдискретизация насыщенности : 4:2:0Битовая глубина : 8 битТип развёртки : ПрогрессивнаяМетод сжатия : С потерямиБит/(Пиксели*Кадры) : 0.678Временной код первого кадра : 00:00:00:00Оригинал временного кода : Group of pictures headerРазмер потока : 25,8 Мбайт (98%)
Меню
ОбщееПолное имя : F:\MONAR.RU\Видео\История России и мира\Романовы. История Российской династии 1613-1917\Диск 2. Фильмы 3-4\VIDEO_TS\VTS_01_0.BUPФормат : DVD VideoПрофиль формата : ProgramРазмер файла : 50,0 КбайтПродолжительность : 47 м.Режим общего битрейта : ПеременныйОбщий поток : 142 бит/сек
ВидеоИдентификатор : 224 (0xE0)Формат : MPEG VideoВерсия формата : Version 2Продолжительность : 47 м.Вид битрейта : ПеременныйШирина : 720 пикселейВысота : 576 пикселейСоотношение сторон : 16:9Частота кадров : 25,000 кадров/секСтандарт вещания : PALМетод сжатия : С потерями
АудиоИдентификатор : 128 (0x80)Формат : AC-3Формат/Информация : Audio Coding 3Продолжительность : 47 м.Каналы : 2 каналаЧастота : 48,0 КГцМетод сжатия : С потерямиЯзык : Russian
МенюПродолжительность : 47 м.00:00:00.000 : Chapter 100:05:00.040 : Chapter 200:09:51.200 : Chapter 300:14:52.280 : Chapter 400:19:47.560 : Chapter 500:24:26.480 : Chapter 600:29:26.240 : Chapter 700:34:25.760 : Chapter 800:39:13.600 : Chapter 900:42:39.120 : Chapter 1000:46:48.840 : Chapter 11List (Audio) : 0
ОбщееПолное имя : F:\MONAR.RU\Видео\История России и мира\Романовы. История Российской династии 1613-1917\Диск 2. Фильмы 3-4\VIDEO_TS\VTS_01_0.IFOФормат : DVD VideoПрофиль формата : ProgramРазмер файла : 50,0 КбайтПродолжительность : 47 м.Режим общего битрейта : ПеременныйОбщий поток : 142 бит/сек
ВидеоИдентификатор : 224 (0xE0)Формат : MPEG VideoВерсия формата : Version 2Продолжительность : 47 м.Вид битрейта : ПеременныйШирина : 720 пикселейВысота : 576 пикселейСоотношение сторон : 16:9Частота кадров : 25,000 кадров/секСтандарт вещания : PALМетод сжатия : С потерями
АудиоИдентификатор : 128 (0x80)Формат : AC-3Формат/Информация : Audio Coding 3Продолжительность : 47 м.Каналы : 2 каналаЧастота : 48,0 КГцМетод сжатия : С потерямиЯзык : Russian
МенюПродолжительность : 47 м.00:00:00.000 : Chapter 100:05:00.040 : Chapter 200:09:51.200 : Chapter 300:14:52.280 : Chapter 400:19:47.560 : Chapter 500:24:26.480 : Chapter 600:29:26.240 : Chapter 700:34:25.760 : Chapter 800:39:13.600 : Chapter 900:42:39.120 : Chapter 1000:46:48.840 : Chapter 11List (Audio) : 0
ОбщееПолное имя : F:\MONAR.RU\Видео\История России и мира\Романовы. История Российской династии 1613-1917\Диск 2. Фильмы 3-4\VIDEO_TS\VTS_01_0.VOBФормат : MPEG-PSРазмер файла : 133 МбайтПродолжительность : 30 с.Режим общего битрейта : ПеременныйОбщий поток : 36,4 Мбит/сек
ВидеоИдентификатор : 224 (0xE0)Формат : MPEG VideoВерсия формата : Version 2Профиль формата : Main@MainПараметр BVOP формата : ДаПараметр матрицы формата : По умолчаниюПараметр GOP формата : M=3, N=12Продолжительность : 30 с.Вид битрейта : ПеременныйБитрейт : 35,5 Мбит/секМаксимальный битрейт : 9008 Кбит/секШирина : 720 пикселейВысота : 576 пикселейСоотношение сторон : 4:3Частота кадров : 25,000 кадров/секСтандарт вещания : PALЦветовое пространство : YUVСубдискретизация насыщенности : 4:2:0Битовая глубина : 8 битТип развёртки : ПрогрессивнаяМетод сжатия : С потерямиБит/(Пиксели*Кадры) : 3.423Временной код первого кадра : 00:00:00:00Оригинал временного кода : Group of pictures headerРазмер потока : 130 Мбайт (97%)
АудиоИдентификатор : 189 (0xBD)-128 (0x80)Формат : AC-3Формат/Информация : Audio Coding 3Расширение режима : CM (complete main)Параметр Endianness формата : BigРежим смешивания : DVD-VideoПродолжительность : 30 с.Вид битрейта : ПостоянныйБитрейт : 192 Кбит/секКаналы : 2 каналаРасположение каналов : Front: L RЧастота : 48,0 КГцБитовая глубина : 16 битМетод сжатия : С потерямиРазмер потока : 716 Кбайт (1%)
ТекстИдентификатор : 189 (0xBD)-32 (0x20)Формат : RLEФормат/Информация : Run-length encodingРежим смешивания : DVD-VideoЗадержка видео : 5 с. 360 мс.
Меню
ОбщееПолное имя : F:\MONAR.RU\Видео\История России и мира\Романовы. История Российской династии 1613-1917\Диск 2. Фильмы 3-4\VIDEO_TS\VTS_01_1.VOBФормат : MPEG-PSРазмер файла : 1024 МбайтПродолжительность : 26 м.Режим общего битрейта : ПеременныйОбщий поток : 5361 Кбит/сек
ВидеоИдентификатор : 224 (0xE0)Формат : MPEG VideoВерсия формата : Version 2Профиль формата : Main@MainПараметр BVOP формата : ДаПараметр матрицы формата : По умолчаниюПараметр GOP формата : M=3, N=13Продолжительность : 26 м.Вид битрейта : ПеременныйБитрейт : 5062 Кбит/секМаксимальный битрейт : 9008 Кбит/секШирина : 720 пикселейВысота : 576 пикселейСоотношение сторон : 16:9Частота кадров : 25,000 кадров/секСтандарт вещания : PALЦветовое пространство : YUVСубдискретизация насыщенности : 4:2:0Битовая глубина : 8 битТип развёртки : ПрогрессивнаяМетод сжатия : С потерямиБит/(Пиксели*Кадры) : 0.488Временной код первого кадра : 00:00:00:00Оригинал временного кода : Group of pictures headerРазмер потока : 967 Мбайт (94%)
АудиоИдентификатор : 189 (0xBD)-128 (0x80)Формат : AC-3Формат/Информация : Audio Coding 3Расширение режима : CM (complete main)Параметр Endianness формата : BigРежим смешивания : DVD-VideoПродолжительность : 26 м.Вид битрейта : ПостоянныйБитрейт : 192 Кбит/секКаналы : 2 каналаРасположение каналов : Front: L RЧастота : 48,0 КГцБитовая глубина : 16 битМетод сжатия : С потерямиРазмер потока : 36,7 Мбайт (4%)
Меню
ОбщееПолное имя : F:\MONAR.RU\Видео\История России и мира\Романовы. История Российской династии 1613-1917\Диск 2. Фильмы 3-4\VIDEO_TS\VTS_01_2.VOBФормат : MPEG-PSРазмер файла : 816 МбайтПродолжительность : 21 м.Режим общего битрейта : ПеременныйОбщий поток : 5362 Кбит/сек
ВидеоИдентификатор : 224 (0xE0)Формат : MPEG VideoВерсия формата : Version 2Профиль формата : Main@MainПараметр BVOP формата : ДаПараметр матрицы формата : По умолчаниюПараметр GOP формата : M=3, N=13Продолжительность : 21 м.Вид битрейта : ПеременныйБитрейт : 5063 Кбит/секМаксимальный битрейт : 9008 Кбит/секШирина : 720 пикселейВысота : 576 пикселейСоотношение сторон : 16:9Частота кадров : 25,000 кадров/секСтандарт вещания : PALЦветовое пространство : YUVСубдискретизация насыщенности : 4:2:0Битовая глубина : 8 битТип развёртки : ПрогрессивнаяМетод сжатия : С потерямиБит/(Пиксели*Кадры) : 0.488Временной код первого кадра : 00:26:40:56Оригинал временного кода : Group of pictures headerРазмер потока : 771 Мбайт (94%)
АудиоИдентификатор : 189 (0xBD)-128 (0x80)Формат : AC-3Формат/Информация : Audio Coding 3Расширение режима : CM (complete main)Параметр Endianness формата : BigРежим смешивания : DVD-VideoПродолжительность : 21 м.Вид битрейта : ПостоянныйБитрейт : 192 Кбит/секКаналы : 2 каналаРасположение каналов : Front: L RЧастота : 48,0 КГцБитовая глубина : 16 битМетод сжатия : С потерямиЗадержка видео : -392 мс.Размер потока : 29,2 Мбайт (4%)
Меню
ОбщееПолное имя : F:\MONAR.RU\Видео\История России и мира\Романовы. История Российской династии 1613-1917\Диск 2. Фильмы 3-4\VIDEO_TS\VTS_02_0.BUPФормат : DVD VideoПрофиль формата : ProgramРазмер файла : 50,0 КбайтПродолжительность : 47 м.Режим общего битрейта : ПеременныйОбщий поток : 145 бит/сек
ВидеоИдентификатор : 224 (0xE0)Формат : MPEG VideoВерсия формата : Version 2Продолжительность : 47 м.Вид битрейта : ПеременныйШирина : 720 пикселейВысота : 576 пикселейСоотношение сторон : 16:9Частота кадров : 25,000 кадров/секСтандарт вещания : PALМетод сжатия : С потерями
АудиоИдентификатор : 128 (0x80)Формат : AC-3Формат/Информация : Audio Coding 3Продолжительность : 47 м.Каналы : 2 каналаЧастота : 48,0 КГцМетод сжатия : С потерямиЯзык : Russian
МенюПродолжительность : 47 м.00:00:00.000 : Chapter 100:04:54.440 : Chapter 200:08:36.320 : Chapter 300:13:26.520 : Chapter 400:18:09.360 : Chapter 500:22:45.080 : Chapter 600:27:32.880 : Chapter 700:31:55.400 : Chapter 800:36:44.640 : Chapter 900:41:27.560 : Chapter 1000:46:00.160 : Chapter 11List (Audio) : 0
ОбщееПолное имя : F:\MONAR.RU\Видео\История России и мира\Романовы. История Российской династии 1613-1917\Диск 2. Фильмы 3-4\VIDEO_TS\VTS_02_0.IFOФормат : DVD VideoПрофиль формата : ProgramРазмер файла : 50,0 КбайтПродолжительность : 47 м.Режим общего битрейта : ПеременныйОбщий поток : 145 бит/сек
ВидеоИдентификатор : 224 (0xE0)Формат : MPEG VideoВерсия формата : Version 2Продолжительность : 47 м.Вид битрейта : ПеременныйШирина : 720 пикселейВысота : 576 пикселейСоотношение сторон : 16:9Частота кадров : 25,000 кадров/секСтандарт вещания : PALМетод сжатия : С потерями
АудиоИдентификатор : 128 (0x80)Формат : AC-3Формат/Информация : Audio Coding 3Продолжительность : 47 м.Каналы : 2 каналаЧастота : 48,0 КГцМетод сжатия : С потерямиЯзык : Russian
МенюПродолжительность : 47 м.00:00:00.000 : Chapter 100:04:54.440 : Chapter 200:08:36.320 : Chapter 300:13:26.520 : Chapter 400:18:09.360 : Chapter 500:22:45.080 : Chapter 600:27:32.880 : Chapter 700:31:55.400 : Chapter 800:36:44.640 : Chapter 900:41:27.560 : Chapter 1000:46:00.160 : Chapter 11List (Audio) : 0
ОбщееПолное имя : F:\MONAR.RU\Видео\История России и мира\Романовы. История Российской династии 1613-1917\Диск 2. Фильмы 3-4\VIDEO_TS\VTS_02_0.VOBФормат : MPEG-PSРазмер файла : 135 МбайтПродолжительность : 30 с.Режим общего битрейта : ПеременныйОбщий поток : 36,7 Мбит/сек
ВидеоИдентификатор : 224 (0xE0)Формат : MPEG VideoВерсия формата : Version 2Профиль формата : Main@MainПараметр BVOP формата : ДаПараметр матрицы формата : По умолчаниюПараметр GOP формата : M=3, N=12Продолжительность : 30 с.Вид битрейта : ПеременныйБитрейт : 35,8 Мбит/секМаксимальный битрейт : 9008 Кбит/секШирина : 720 пикселейВысота : 576 пикселейСоотношение сторон : 4:3Частота кадров : 25,000 кадров/секСтандарт вещания : PALЦветовое пространство : YUVСубдискретизация насыщенности : 4:2:0Битовая глубина : 8 битТип развёртки : ПрогрессивнаяМетод сжатия : С потерямиБит/(Пиксели*Кадры) : 3.455Временной код первого кадра : 00:00:00:00Оригинал временного кода : Group of pictures headerРазмер потока : 131 Мбайт (97%)
АудиоИдентификатор : 189 (0xBD)-128 (0x80)Формат : AC-3Формат/Информация : Audio Coding 3Расширение режима : CM (complete main)Параметр Endianness формата : BigРежим смешивания : DVD-VideoПродолжительность : 30 с.Вид битрейта : ПостоянныйБитрейт : 192 Кбит/секКаналы : 2 каналаРасположение каналов : Front: L RЧастота : 48,0 КГцБитовая глубина : 16 битМетод сжатия : С потерямиРазмер потока : 716 Кбайт (1%)
ТекстИдентификатор : 189 (0xBD)-32 (0x20)Формат : RLEФормат/Информация : Run-length encodingРежим смешивания : DVD-VideoЗадержка видео : 5 с. 360 мс.
Меню
ОбщееПолное имя : F:\MONAR.RU\Видео\История России и мира\Романовы. История Российской династии 1613-1917\Диск 2. Фильмы 3-4\VIDEO_TS\VTS_02_1.VOBФормат : MPEG-PSРазмер файла : 1024 МбайтПродолжительность : 26 м.Режим общего битрейта : ПеременныйОбщий поток : 5394 Кбит/сек
ВидеоИдентификатор : 224 (0xE0)Формат : MPEG VideoВерсия формата : Version 2Профиль формата : Main@MainПараметр BVOP формата : ДаПараметр матрицы формата : По умолчаниюПараметр GOP формата : M=3, N=13Продолжительность : 26 м.Вид битрейта : ПеременныйБитрейт : 5095 Кбит/секМаксимальный битрейт : 9008 Кбит/секШирина : 720 пикселейВысота : 576 пикселейСоотношение сторон : 16:9Частота кадров : 25,000 кадров/секСтандарт вещания : PALЦветовое пространство : YUVСубдискретизация насыщенности : 4:2:0Битовая глубина : 8 битТип развёртки : ПрогрессивнаяМетод сжатия : С потерямиБит/(Пиксели*Кадры) : 0.491Временной код первого кадра : 00:00:00:00Оригинал временного кода : Group of pictures headerРазмер потока : 967 Мбайт (94%)
АудиоИдентификатор : 189 (0xBD)-128 (0x80)Формат : AC-3Формат/Информация : Audio Coding 3Расширение режима : CM (complete main)Параметр Endianness формата : BigРежим смешивания : DVD-VideoПродолжительность : 26 м.Вид битрейта : ПостоянныйБитрейт : 192 Кбит/секКаналы : 2 каналаРасположение каналов : Front: L RЧастота : 48,0 КГцБитовая глубина : 16 битМетод сжатия : С потерямиРазмер потока : 36,4 Мбайт (4%)
Меню
ОбщееПолное имя : F:\MONAR.RU\Видео\История России и мира\Романовы. История Российской династии 1613-1917\Диск 2. Фильмы 3-4\VIDEO_TS\VTS_02_2.VOBФормат : MPEG-PSРазмер файла : 800 МбайтПродолжительность : 20 м.Режим общего битрейта : ПеременныйОбщий поток : 5436 Кбит/сек
ВидеоИдентификатор : 224 (0xE0)Формат : MPEG VideoВерсия формата : Version 2Профиль формата : Main@MainПараметр BVOP формата : ДаПараметр матрицы формата : По умолчаниюПараметр GOP формата : M=3, N=13Продолжительность : 20 м.Вид битрейта : ПеременныйБитрейт : 5135 Кбит/секМаксимальный битрейт : 9008 Кбит/секШирина : 720 пикселейВысота : 576 пикселейСоотношение сторон : 16:9Частота кадров : 25,000 кадров/секСтандарт вещания : PALЦветовое пространство : YUVСубдискретизация насыщенности : 4:2:0Битовая глубина : 8 битТип развёртки : ПрогрессивнаяМетод сжатия : С потерямиБит/(Пиксели*Кадры) : 0.495Временной код первого кадра : 00:26:32:47Оригинал временного кода : Group of pictures headerРазмер потока : 755 Мбайт (94%)
АудиоИдентификатор : 189 (0xBD)-128 (0x80)Формат : AC-3Формат/Информация : Audio Coding 3Расширение режима : CM (complete main)Параметр Endianness формата : BigРежим смешивания : DVD-VideoПродолжительность : 20 м.Вид битрейта : ПостоянныйБитрейт : 192 Кбит/секКаналы : 2 каналаРасположение каналов : Front: L RЧастота : 48,0 КГцБитовая глубина : 16 битМетод сжатия : С потерямиЗадержка видео : -400 мс.Размер потока : 28,2 Мбайт (4%)
Меню

Скриншоты меню

Скриншоты

Анаморфированные скриншоты

Диск

Обложка

Романовы. История Российской династии 1613-1917. Диски 3-4
Год выпуска: 2013
Страна: Россия
Жанр: Исторический
Продолжительность: 4 ~ 03:00:00
Перевод: Не требуется
Русские субтитры: нет
Режиссер: М. Беспалый
Описание: Уникальный по форме проект, приуроченный к 400-летию воцарения на Руси Дома Романовых, который сочетает в себе элементы и игрового, и документального кино, информационной графики и анимации. История расскажет о том, что представляло собой русское Самодержавие как система управления, каковы ее достатки и преимущества, какую роль Монархи Дома Романовых играли в событиях российской и мировой истории. При помощи графики создается максимально исторически-достоверная картина, которая погружает зрителя в атмосферу и ощущение времени и позволяет увидеть Царя глазами современников.
Доп. информация: Данное DVD-издание предназначено для просмотра в младших классах школ, поэтому некоторые серии (начиная с 4-ой) по сравнению с HD-релизом является сокращенными в отношении домыслов о личной жизни (похождениях) Царствовавших Императоров и Императриц. Тем не менее, издание выкладывается на трекере ввиду отсутствия аналогичного нецензурированного DVD-издания. С исходников декриптером снята региональная защита на седьмой регион.
Бонусы: Отсутствуют.
Меню: Имеется, русский, анимированное, динамичное, озвученное
Сэмпл: https://www.sendspace.com/file/1ixq08
Обложка: https://www.sendspace.com/file/t877u7

Описания, характеристики и скриншоты

Диск 3. Фильмы 5-6

5. Пётр III. Екатерина II
Не дав своему супругу Петру III поцарствовать и полугода, Екатерина, как и ее предшественницы, взошла на трон при помощи верной гвардии. За два десятка лет до этого маленькая немецкая принцесса Фике или София-Фредерика-Августа принцесса Ангальт-Цербстская приехала в Россию. Ей было 15, и в новой огромной стране она оказалась попросту запертой. Но будущая Екатерина Великая полюбила Россию. Выучила русский и церковнославянский языки, практически избавилась от акцента. Не было такой государственной или бытовой сферы жизни, которую бы она не постаралась регламентировать и обустроить: от управления губерниями до обязанностей повивальных бабок. Именно во время ее правления о России вновь заговорили во всей Европе как о великой державе.
6. Павел I. Александр I
Император Павел I был философом, а его считали солдафоном. Он был стратегом, а слыл непоследовательным политиком. Человек противоречивый, с военной прямотой и рыцарским сердцем, он пал в результате заговора людей, которым больше всего доверял. На троне его сменил сын Александр I - аристократ и либерал. Будучи тонким дипломатом, он казался своим современникам тайной. Но именно ему Европа обязана свержением диктатуры Наполеона и миром на долгие годы. Именно он одним из первых начал думать об отмене крепостного права в России. Именно его внезапная смерть, до сих пор вызывающая споры, послужила поводом и стала началом восстания на Сенатской площади.
Главы (разбивка по трекам): есть
Качество: DVD5
Формат: DVD Video
Видео кодек: MPEG2
Аудио кодек: AC3
Видео: VBR~ 5061-5135 Кбит/сек, 720*576 (16:9), в 25,000 кадров/сек, MPEG2
Аудио: Русский, 192 Кбит/сек, 48,0 КГц, 16 бит, 2 канала, AC-3

DVDInfo

Title: Data2Size: 3.59 Gb ( 3 763 908 KBytes ) - DVD-5Enabled regions: 1, 2, 3, 4, 5, 6, 7, 8
VTS_01 : Play Length: 00:40:24 Video: PAL 16:9 (720x576) VBR, Auto Pan&Scan Audio: Russian (Dolby AC3, 2 ch)
VTS_02 : Play Length: 00:46:45 Video: PAL 16:9 (720x576) VBR, Auto Pan&Scan Audio: Russian (Dolby AC3, 2 ch)
Menu Video: PAL 4:3 (720x576) VBRMenu Subtitles: Not specifiedMenu English Language Unit : Root Menu

MediaInfo

ОбщееПолное имя                               : F:\MONAR.RU\Видео\История России и мира\Романовы. История Российской династии 1613-1917\Диск 3. Фильмы 5-6\VIDEO_TS\VIDEO_TS.BUPФормат                                   : DVD VideoПрофиль формата                          : MenuРазмер файла                             : 14,0 КбайтРежим общего битрейта                    : Переменный
ВидеоИдентификатор : 224 (0xE0)Формат : MPEG VideoВерсия формата : Version 2Вид битрейта : ПеременныйШирина : 720 пикселейВысота : 576 пикселейСоотношение сторон : 4:3Частота кадров : 25,000 кадров/секСтандарт вещания : PALМетод сжатия : С потерями
ТекстФормат : RLEФормат/Информация : Run-length encodingБитовая глубина : 2 бит
ОбщееПолное имя : F:\MONAR.RU\Видео\История России и мира\Романовы. История Российской династии 1613-1917\Диск 3. Фильмы 5-6\VIDEO_TS\VIDEO_TS.IFOФормат : DVD VideoПрофиль формата : MenuРазмер файла : 14,0 КбайтРежим общего битрейта : Переменный
ВидеоИдентификатор : 224 (0xE0)Формат : MPEG VideoВерсия формата : Version 2Вид битрейта : ПеременныйШирина : 720 пикселейВысота : 576 пикселейСоотношение сторон : 4:3Частота кадров : 25,000 кадров/секСтандарт вещания : PALМетод сжатия : С потерями
ТекстФормат : RLEФормат/Информация : Run-length encodingБитовая глубина : 2 бит
ОбщееПолное имя : F:\MONAR.RU\Видео\История России и мира\Романовы. История Российской династии 1613-1917\Диск 3. Фильмы 5-6\VIDEO_TS\VIDEO_TS.VOBФормат : MPEG-PSРазмер файла : 25,7 МбайтПродолжительность : 30 с.Режим общего битрейта : ПеременныйОбщий поток : 7012 Кбит/сек
ВидеоИдентификатор : 224 (0xE0)Формат : MPEG VideoВерсия формата : Version 2Профиль формата : Main@MainПараметр BVOP формата : ДаПараметр матрицы формата : По умолчаниюПараметр GOP формата : M=3, N=12Продолжительность : 30 с.Вид битрейта : ПеременныйБитрейт : 6873 Кбит/секМаксимальный битрейт : 9008 Кбит/секШирина : 720 пикселейВысота : 576 пикселейСоотношение сторон : 4:3Частота кадров : 25,000 кадров/секСтандарт вещания : PALЦветовое пространство : YUVСубдискретизация насыщенности : 4:2:0Битовая глубина : 8 битТип развёртки : ПрогрессивнаяМетод сжатия : С потерямиБит/(Пиксели*Кадры) : 0.663Временной код первого кадра : 00:00:00:00Оригинал временного кода : Group of pictures headerРазмер потока : 25,2 Мбайт (98%)
ТекстИдентификатор : 189 (0xBD)-32 (0x20)Формат : RLEФормат/Информация : Run-length encodingРежим смешивания : DVD-VideoЗадержка видео : 5 с. 360 мс.
Меню
ОбщееПолное имя : F:\MONAR.RU\Видео\История России и мира\Романовы. История Российской династии 1613-1917\Диск 3. Фильмы 5-6\VIDEO_TS\VTS_01_0.BUPФормат : DVD VideoПрофиль формата : ProgramРазмер файла : 48,0 КбайтПродолжительность : 40 м.Режим общего битрейта : ПеременныйОбщий поток : 162 бит/сек
ВидеоИдентификатор : 224 (0xE0)Формат : MPEG VideoВерсия формата : Version 2Продолжительность : 40 м.Вид битрейта : ПеременныйШирина : 720 пикселейВысота : 576 пикселейСоотношение сторон : 16:9Частота кадров : 25,000 кадров/секСтандарт вещания : PALМетод сжатия : С потерями
АудиоИдентификатор : 128 (0x80)Формат : AC-3Формат/Информация : Audio Coding 3Продолжительность : 40 м.Каналы : 2 каналаЧастота : 48,0 КГцМетод сжатия : С потерямиЯзык : Russian
МенюПродолжительность : 40 м.00:00:00.000 : Chapter 100:02:53.000 : Chapter 200:05:34.600 : Chapter 300:08:34.840 : Chapter 400:13:23.840 : Chapter 500:18:21.240 : Chapter 600:21:20.440 : Chapter 700:23:54.560 : Chapter 800:28:54.080 : Chapter 900:33:54.120 : Chapter 1000:38:54.160 : Chapter 11List (Audio) : 0
ОбщееПолное имя : F:\MONAR.RU\Видео\История России и мира\Романовы. История Российской династии 1613-1917\Диск 3. Фильмы 5-6\VIDEO_TS\VTS_01_0.IFOФормат : DVD VideoПрофиль формата : ProgramРазмер файла : 48,0 КбайтПродолжительность : 40 м.Режим общего битрейта : ПеременныйОбщий поток : 162 бит/сек
ВидеоИдентификатор : 224 (0xE0)Формат : MPEG VideoВерсия формата : Version 2Продолжительность : 40 м.Вид битрейта : ПеременныйШирина : 720 пикселейВысота : 576 пикселейСоотношение сторон : 16:9Частота кадров : 25,000 кадров/секСтандарт вещания : PALМетод сжатия : С потерями
АудиоИдентификатор : 128 (0x80)Формат : AC-3Формат/Информация : Audio Coding 3Продолжительность : 40 м.Каналы : 2 каналаЧастота : 48,0 КГцМетод сжатия : С потерямиЯзык : Russian
МенюПродолжительность : 40 м.00:00:00.000 : Chapter 100:02:53.000 : Chapter 200:05:34.600 : Chapter 300:08:34.840 : Chapter 400:13:23.840 : Chapter 500:18:21.240 : Chapter 600:21:20.440 : Chapter 700:23:54.560 : Chapter 800:28:54.080 : Chapter 900:33:54.120 : Chapter 1000:38:54.160 : Chapter 11List (Audio) : 0
ОбщееПолное имя : F:\MONAR.RU\Видео\История России и мира\Романовы. История Российской династии 1613-1917\Диск 3. Фильмы 5-6\VIDEO_TS\VTS_01_0.VOBФормат : MPEG-PSРазмер файла : 134 МбайтПродолжительность : 30 с.Режим общего битрейта : ПеременныйОбщий поток : 36,5 Мбит/сек
ВидеоИдентификатор : 224 (0xE0)Формат : MPEG VideoВерсия формата : Version 2Профиль формата : Main@MainПараметр BVOP формата : ДаПараметр матрицы формата : По умолчаниюПараметр GOP формата : M=3, N=12Продолжительность : 30 с.Вид битрейта : ПеременныйБитрейт : 35,6 Мбит/секМаксимальный битрейт : 9008 Кбит/секШирина : 720 пикселейВысота : 576 пикселейСоотношение сторон : 4:3Частота кадров : 25,000 кадров/секСтандарт вещания : PALЦветовое пространство : YUVСубдискретизация насыщенности : 4:2:0Битовая глубина : 8 битТип развёртки : ПрогрессивнаяМетод сжатия : С потерямиБит/(Пиксели*Кадры) : 3.430Временной код первого кадра : 00:00:00:00Оригинал временного кода : Group of pictures headerРазмер потока : 130 Мбайт (97%)
АудиоИдентификатор : 189 (0xBD)-128 (0x80)Формат : AC-3Формат/Информация : Audio Coding 3Расширение режима : CM (complete main)Параметр Endianness формата : BigРежим смешивания : DVD-VideoПродолжительность : 30 с.Вид битрейта : ПостоянныйБитрейт : 192 Кбит/секКаналы : 2 каналаРасположение каналов : Front: L RЧастота : 48,0 КГцБитовая глубина : 16 битМетод сжатия : С потерямиРазмер потока : 716 Кбайт (1%)
ТекстИдентификатор : 189 (0xBD)-32 (0x20)Формат : RLEФормат/Информация : Run-length encodingРежим смешивания : DVD-VideoЗадержка видео : 5 с. 360 мс.
Меню
ОбщееПолное имя : F:\MONAR.RU\Видео\История России и мира\Романовы. История Российской династии 1613-1917\Диск 3. Фильмы 5-6\VIDEO_TS\VTS_01_1.VOBФормат : MPEG-PSРазмер файла : 1024 МбайтПродолжительность : 26 м.Режим общего битрейта : ПеременныйОбщий поток : 5436 Кбит/сек
ВидеоИдентификатор : 224 (0xE0)Формат : MPEG VideoВерсия формата : Version 2Профиль формата : Main@MainПараметр BVOP формата : ДаПараметр матрицы формата : По умолчаниюПараметр GOP формата : M=3, N=13Продолжительность : 26 м.Вид битрейта : ПеременныйБитрейт : 5135 Кбит/секМаксимальный битрейт : 9008 Кбит/секШирина : 720 пикселейВысота : 576 пикселейСоотношение сторон : 16:9Частота кадров : 25,000 кадров/секСтандарт вещания : PALЦветовое пространство : YUVСубдискретизация насыщенности : 4:2:0Битовая глубина : 8 битТип развёртки : ПрогрессивнаяМетод сжатия : С потерямиБит/(Пиксели*Кадры) : 0.495Временной код первого кадра : 00:00:00:00Оригинал временного кода : Group of pictures headerРазмер потока : 967 Мбайт (94%)
АудиоИдентификатор : 189 (0xBD)-128 (0x80)Формат : AC-3Формат/Информация : Audio Coding 3Расширение режима : CM (complete main)Параметр Endianness формата : BigРежим смешивания : DVD-VideoПродолжительность : 26 м.Вид битрейта : ПостоянныйБитрейт : 192 Кбит/секКаналы : 2 каналаРасположение каналов : Front: L RЧастота : 48,0 КГцБитовая глубина : 16 битМетод сжатия : С потерямиРазмер потока : 36,2 Мбайт (4%)
Меню
ОбщееПолное имя : F:\MONAR.RU\Видео\История России и мира\Романовы. История Российской династии 1613-1917\Диск 3. Фильмы 5-6\VIDEO_TS\VTS_01_2.VOBФормат : MPEG-PSРазмер файла : 541 МбайтПродолжительность : 14 м.Общий поток : 5379 Кбит/сек
ВидеоИдентификатор : 224 (0xE0)Формат : MPEG-4 VisualПараметр BVOP формата : ДаПараметр QPel формата : НетПараметр GMC формата : Без точки переходаПараметр матрицы формата : Default (H.263)Продолжительность : 14 м.Битрейт : 5080 Кбит/секЦветовое пространство : YUVБитовая глубина : 11 битТип развёртки : ПрогрессивнаяМетод сжатия : С потерямиРазмер потока : 511 Мбайт (94%)Характеристики трансфера : BT.601Коэффициенты матрицы : RGB
АудиоИдентификатор : 189 (0xBD)-128 (0x80)Формат : AC-3Формат/Информация : Audio Coding 3Расширение режима : CM (complete main)Параметр Endianness формата : BigРежим смешивания : DVD-VideoПродолжительность : 14 м.Вид битрейта : ПостоянныйБитрейт : 192 Кбит/секКаналы : 2 каналаРасположение каналов : Front: L RЧастота : 48,0 КГцБитовая глубина : 16 битМетод сжатия : С потерямиЗадержка видео : -552 мс.Размер потока : 19,3 Мбайт (4%)
Меню
ОбщееПолное имя : F:\MONAR.RU\Видео\История России и мира\Романовы. История Российской династии 1613-1917\Диск 3. Фильмы 5-6\VIDEO_TS\VTS_02_0.BUPФормат : DVD VideoПрофиль формата : ProgramРазмер файла : 50,0 КбайтПродолжительность : 46 м.Режим общего битрейта : ПеременныйОбщий поток : 146 бит/сек
ВидеоИдентификатор : 224 (0xE0)Формат : MPEG VideoВерсия формата : Version 2Продолжительность : 46 м.Вид битрейта : ПеременныйШирина : 720 пикселейВысота : 576 пикселейСоотношение сторон : 16:9Частота кадров : 25,000 кадров/секСтандарт вещания : PALМетод сжатия : С потерями
АудиоИдентификатор : 128 (0x80)Формат : AC-3Формат/Информация : Audio Coding 3Продолжительность : 46 м.Каналы : 2 каналаЧастота : 48,0 КГцМетод сжатия : С потерямиЯзык : Russian
МенюПродолжительность : 46 м.00:00:00.000 : Chapter 100:04:09.560 : Chapter 200:08:58.200 : Chapter 300:13:04.880 : Chapter 400:17:17.160 : Chapter 500:22:05.200 : Chapter 600:26:01.600 : Chapter 700:31:01.120 : Chapter 800:36:01.680 : Chapter 900:40:55.840 : Chapter 1000:45:36.760 : Chapter 11List (Audio) : 0
ОбщееПолное имя : F:\MONAR.RU\Видео\История России и мира\Романовы. История Российской династии 1613-1917\Диск 3. Фильмы 5-6\VIDEO_TS\VTS_02_0.IFOФормат : DVD VideoПрофиль формата : ProgramРазмер файла : 50,0 КбайтПродолжительность : 46 м.Режим общего битрейта : ПеременныйОбщий поток : 146 бит/сек
ВидеоИдентификатор : 224 (0xE0)Формат : MPEG VideoВерсия формата : Version 2Продолжительность : 46 м.Вид битрейта : ПеременныйШирина : 720 пикселейВысота : 576 пикселейСоотношение сторон : 16:9Частота кадров : 25,000 кадров/секСтандарт вещания : PALМетод сжатия : С потерями
АудиоИдентификатор : 128 (0x80)Формат : AC-3Формат/Информация : Audio Coding 3Продолжительность : 46 м.Каналы : 2 каналаЧастота : 48,0 КГцМетод сжатия : С потерямиЯзык : Russian
МенюПродолжительность : 46 м.00:00:00.000 : Chapter 100:04:09.560 : Chapter 200:08:58.200 : Chapter 300:13:04.880 : Chapter 400:17:17.160 : Chapter 500:22:05.200 : Chapter 600:26:01.600 : Chapter 700:31:01.120 : Chapter 800:36:01.680 : Chapter 900:40:55.840 : Chapter 1000:45:36.760 : Chapter 11List (Audio) : 0
ОбщееПолное имя : F:\MONAR.RU\Видео\История России и мира\Романовы. История Российской династии 1613-1917\Диск 3. Фильмы 5-6\VIDEO_TS\VTS_02_0.VOBФормат : MPEG-PSРазмер файла : 136 МбайтПродолжительность : 30 с.Режим общего битрейта : ПеременныйОбщий поток : 37,1 Мбит/сек
ВидеоИдентификатор : 224 (0xE0)Формат : MPEG VideoВерсия формата : Version 2Профиль формата : Main@MainПараметр BVOP формата : ДаПараметр матрицы формата : По умолчаниюПараметр GOP формата : M=3, N=12Продолжительность : 30 с.Вид битрейта : ПеременныйБитрейт : 36,2 Мбит/секМаксимальный битрейт : 9008 Кбит/секШирина : 720 пикселейВысота : 576 пикселейСоотношение сторон : 4:3Частота кадров : 25,000 кадров/секСтандарт вещания : PALЦветовое пространство : YUVСубдискретизация насыщенности : 4:2:0Битовая глубина : 8 битТип развёртки : ПрогрессивнаяМетод сжатия : С потерямиБит/(Пиксели*Кадры) : 3.488Временной код первого кадра : 00:00:00:00Оригинал временного кода : Group of pictures headerРазмер потока : 132 Мбайт (97%)
АудиоИдентификатор : 189 (0xBD)-128 (0x80)Формат : AC-3Формат/Информация : Audio Coding 3Расширение режима : CM (complete main)Параметр Endianness формата : BigРежим смешивания : DVD-VideoПродолжительность : 30 с.Вид битрейта : ПостоянныйБитрейт : 192 Кбит/секКаналы : 2 каналаРасположение каналов : Front: L RЧастота : 48,0 КГцБитовая глубина : 16 битМетод сжатия : С потерямиРазмер потока : 716 Кбайт (1%)
ТекстИдентификатор : 189 (0xBD)-32 (0x20)Формат : RLEФормат/Информация : Run-length encodingРежим смешивания : DVD-VideoЗадержка видео : 5 с. 360 мс.
Меню
ОбщееПолное имя : F:\MONAR.RU\Видео\История России и мира\Романовы. История Российской династии 1613-1917\Диск 3. Фильмы 5-6\VIDEO_TS\VTS_02_1.VOBФормат : MPEG-PSРазмер файла : 1024 МбайтПродолжительность : 26 м.Режим общего битрейта : ПеременныйОбщий поток : 5360 Кбит/сек
ВидеоИдентификатор : 224 (0xE0)Формат : MPEG VideoВерсия формата : Version 2Профиль формата : Main@MainПараметр BVOP формата : ДаПараметр матрицы формата : По умолчаниюПараметр GOP формата : M=3, N=13Продолжительность : 26 м.Вид битрейта : ПеременныйБитрейт : 5061 Кбит/секМаксимальный битрейт : 9008 Кбит/секШирина : 720 пикселейВысота : 576 пикселейСоотношение сторон : 16:9Частота кадров : 25,000 кадров/секСтандарт вещания : PALЦветовое пространство : YUVСубдискретизация насыщенности : 4:2:0Битовая глубина : 8 битТип развёртки : ПрогрессивнаяМетод сжатия : С потерямиБит/(Пиксели*Кадры) : 0.488Временной код первого кадра : 00:00:00:00Оригинал временного кода : Group of pictures headerРазмер потока : 967 Мбайт (94%)
АудиоИдентификатор : 189 (0xBD)-128 (0x80)Формат : AC-3Формат/Информация : Audio Coding 3Расширение режима : CM (complete main)Параметр Endianness формата : BigРежим смешивания : DVD-VideoПродолжительность : 26 м.Вид битрейта : ПостоянныйБитрейт : 192 Кбит/секКаналы : 2 каналаРасположение каналов : Front: L RЧастота : 48,0 КГцБитовая глубина : 16 битМетод сжатия : С потерямиРазмер потока : 36,7 Мбайт (4%)
Меню
ОбщееПолное имя : F:\MONAR.RU\Видео\История России и мира\Романовы. История Российской династии 1613-1917\Диск 3. Фильмы 5-6\VIDEO_TS\VTS_02_2.VOBФормат : MPEG-PSРазмер файла : 791 МбайтПродолжительность : 20 м.Режим общего битрейта : ПеременныйОбщий поток : 5516 Кбит/сек
ВидеоИдентификатор : 224 (0xE0)Формат : MPEG VideoВерсия формата : Version 2Профиль формата : Main@MainПараметр BVOP формата : ДаПараметр матрицы формата : По умолчаниюПараметр GOP формата : M=3, N=13Продолжительность : 20 м.Вид битрейта : ПеременныйБитрейт : 5214 Кбит/секМаксимальный битрейт : 9008 Кбит/секШирина : 720 пикселейВысота : 576 пикселейСоотношение сторон : 16:9Частота кадров : 25,000 кадров/секСтандарт вещания : PALЦветовое пространство : YUVСубдискретизация насыщенности : 4:2:0Битовая глубина : 8 битТип развёртки : ПрогрессивнаяМетод сжатия : С потерямиБит/(Пиксели*Кадры) : 0.503Размер потока : 747 Мбайт (94%)
АудиоИдентификатор : 189 (0xBD)-128 (0x80)Формат : AC-3Формат/Информация : Audio Coding 3Расширение режима : CM (complete main)Параметр Endianness формата : BigРежим смешивания : DVD-VideoПродолжительность : 20 м.Вид битрейта : ПостоянныйБитрейт : 192 Кбит/секКаналы : 2 каналаРасположение каналов : Front: L RЧастота : 48,0 КГцБитовая глубина : 16 битМетод сжатия : С потерямиЗадержка видео : -640 мс.Размер потока : 27,5 Мбайт (3%)
Меню

Скриншоты меню

Скриншоты

Анаморфированные скриншоты

Диск

Диск 4. Фильмы 7-8

7. Николай I. Александр II
Николай I преследовал две цели - законность и порядок. Его рабочий день длился до 18 часов. Николай стал первым Императором, привившим своим детям понятие преемственности Самодержавной власти. Его сын Александр II отменил крепостное право, спас страну от английской интервенции. Его называли "освободителем", и при этом на его жизнь было совершено шесть покушений. Во время седьмого он погиб.
8. Александр III. Николай II
Александр III был совершенно лишен показного аристократизма. Он мог разгуливать в солдатских сапогах, а дома, порой, сам штопал себе штаны. Однако во время его правления Россия стала одним из лидеров мировой политики. По словам современников, ни одна пушка в Европе не могла выстрелить без его ведома. Николай II – последний Царь из династии Романовых, единственный из монархов, причисленный к лику святых. На время его правления пришлась целая череда потрясений, войн и революций. Но Россия переживала экономический подъем, невиданный ни до, ни после его правления.
Главы (разбивка по трекам): есть
Качество: DVD5
Формат: DVD Video
Видео кодек: MPEG2
Аудио кодек: AC3
Видео: VBR~ 4996-5155 Кбит/сек, 720*576 (16:9), в 25,000 кадров/сек, MPEG2
Аудио: Русский, 192 Кбит/сек, 48,0 КГц, 16 бит, 2 канала, AC-3

DVDInfo

Title: Data2Size: 4.11 Gb ( 4 304 738 KBytes ) - DVD-5Enabled regions: 1, 2, 3, 4, 5, 6, 7, 8
VTS_01 : Play Length: 00:50:23 Video: PAL 16:9 (720x576) VBR, Auto Pan&Scan Audio: Russian (Dolby AC3, 2 ch)
VTS_02 : Play Length: 00:51:19 Video: PAL 16:9 (720x576) VBR, Auto Pan&Scan Audio: Russian (Dolby AC3, 2 ch)
Menu Video: PAL 4:3 (720x576) VBRMenu Subtitles: Not specifiedMenu English Language Unit : Root Menu

Скриншоты меню

Скриншоты

Анаморфированные скриншоты

Диск

[Profile]  [PM] 
Display posts:    
Reply to topic

Current time is: 17-Oct 21:26

All times are UTC + 2



You cannot post new topics in this forum
You cannot reply to topics in this forum
You cannot edit your posts in this forum
You cannot delete your posts in this forum
You cannot vote in polls in this forum
You cannot attach files in this forum
You cannot download files in this forum