1812 (Павел Тупик) [2012 г., Исторический, 2xDVD5]

Reply to topic
 
Author
Message

Atila ®

Gender: Unknown

Longevity: 7 years 4 months

Posts: 2497

Reputation: 0 [+] [-]

Atila · Post 20-Aug-2014 00:20

[Quote] 

1812
Год выпуска: 2012
Страна: Россия
Жанр: Исторический
Продолжительность: 4 х ~ 00:50:00
Перевод: Не требуется
Русские субтитры: нет
Режиссер: П. Тупик
Описание: Масштабная реконструкция героических событий Отечественной войны 1812 года, в которой Россия одержала победу над наполеоновской Францией. Над уникальным проектом работали компании Babich Design и Star Media, которые ранее уже познакомили зрителей с революционным с точки зрения телевизионных технологий циклом «Великая война» (посвященным Великой Отечественной войне 1941-1945 гг.). 4-серийный проект «1812» охватывает основные события войны с Наполеоном с лета по зиму 1812 года - с момента, когда «великая армия» вторглась в пределы Российской империи, до момента, когда ее остатки были изгнаны обратно. Основу фильма составляет художественная реконструкция исторических событий, которая погружает зрителя в атмосферу эпохи, буквально переносит его на поле боя. Работа над проектом заняла год. Как и в случае с «Великой войной» реальные киносъемки сочетались с компьютерной реконструкцией многих сцен в формате 3D. Съемки проходили в основном под Киевом, где не составило труда отыскать места, рельеф которых практически не отличим от рельефа мест реальных сражений 200-летней давности (включая Бородинское поле).
Доп. информация: ДВД скачаны с кинозала у пользователя bog3417.
Бонусы: Отсутствуют.
Меню: Присутствует, русский, анимированное, динамичное, озвученное
Главы (разбивка по трекам): есть
Качество: DVD5
Формат: DVD Video
Видео кодек: MPEG2
Аудио кодек: AC3

Описания, параметры, отчеты и скриншоты

Диск 1. Серии 1-2

1-я серия. "Нашествие"
Июньским утром 1812 года по трeм мостам, наведeнным через реку Неман, переправились полки самой мощной армии мира.
Французы и поляки, итальянцы и австрийцы, пруссаки и испанцы, португальцы, голландцы, представители многочисленных германских княжеств…"Войска двунадесяти языков" - так называли эту армию русские. Возглавляемая императором Франции Наполеоном, она вторглась в пределы Российской империи.
На западной границе России находились три русские армии численностью не более 220 тысяч человек. Им противостояли 614 тысяч солдат Наполеона. Всего же французская армия насчитывала более 800 тысяч солдат разных национальностей.
В 16 губерниях России создавались формирования народного ополчения, а в Украине, на Дону и на Урале – казачьи полки. Дворянство записывалось в армию. В храмах служили молебны о спасении России. Митрополит Платон вручил Русскому Императору чудотворный образ Сергия Радонежского, который Александр I передал московскому ополчению.
Спустя всего несколько недель наполеоновского похода во многих французских полках уже числились сотни заболевших, отставших, пропавших без вести и дезертиров. А в первых же сражениях отчаянная храбрость и решимость русских стоять насмерть удивляли видавших виды французских солдат и офицеров…
2-я серия. "Противостояние"
События второй серии проекта "1812" начинаются в середине июля 1812 года, когда войска Наполеона уже захватили Белоруссию и двигались на Москву.
Французский император жаждал сражения, уверенный, что разобьет армию Александра I и принудит Россию заключить мир на своих условиях. Однако честолюбивым планам завоевателя Европы не суждено было сбыться.
По решению Российского Императора главнокомандующим армией становится генерал Кутузов. В середине августа он принял командование над русской армией, оставив Барклая-де-Толли и Багратиона во главе 1-й и 2-й Западных армий. Оценив обстановку, новый главнокомандующий приказал войскам отходить к Можайску, чтобы соединиться с резервами и Московским ополчением. Вперeд были высланы штабные офицеры, которым предстояло выбрать подходящее место для решающей битвы. Местом для генерального сражения избрали небольшую деревню Бородино в более чем 120 километрах от Москвы.
Вечером, накануне битвы, во французском лагере царило приподнятое настроение. Для поддержания боевого духа войск Наполеон выставил перед своей палаткой на обозрение доставленный портрет его сына - Франсуа Жозефа Шарля.
А в русском лагере солдаты и ополченцы строили укрепления, чистили коней и оружие, подносили боеприпасы. Чтобы укрепить и ободрить воинов, по лагерю носили образ Смоленской Божией Матери. Все воины, от рядового до генерала, понимали, что предстоящее сражение решит судьбу Москвы и всей России.
Видео: 5317 Кбит/сек, 720*576 (16:9), в 25,000 кадров/сек, MPEG2
Аудио: Русский, 448 Кбит/сек, 48,0 КГц, 16 бит, 6 каналов, AC-3
Сэмпл: https://www.sendspace.com/file/bh1kll

DVDInfo

Title: Data2Size: 4.20 Gb ( 4 398 890 KBytes ) - DVD-5Enabled regions: 1, 2, 3, 4, 5, 6, 7, 8
VTS_01 : Play Length: 00:49:57+00:51:15+00:01:42 Video: PAL 16:9 (720x576) VBR, Auto Pan&Scan Audio: Russian (Dolby AC3, 6 ch)
Menu Video: PAL 16:9 (720x576) VBR Auto Pan&ScanMenu Audio: Not specified (Dolby AC3, 2 ch)Menu Subtitles: Not specifiedMenu English Language Unit : Root Menu

MediaInfo

ОбщееПолное имя                               : F:\MONAR.RU\Видео\История России и мира\1812\Диск 1. Серии 1-2\VIDEO_TS\VIDEO_TS.BUPФормат                                   : DVD VideoПрофиль формата                          : MenuРазмер файла                             : 12,0 КбайтРежим общего битрейта                    : Переменный
ВидеоИдентификатор : 224 (0xE0)Формат : MPEG VideoВерсия формата : Version 2Вид битрейта : ПеременныйШирина : 720 пикселейВысота : 576 пикселейСоотношение сторон : 16:9Частота кадров : 25,000 кадров/секСтандарт вещания : PALМетод сжатия : С потерями
АудиоФормат : AC-3Формат/Информация : Audio Coding 3Каналы : 2 каналаЧастота : 48,0 КГцМетод сжатия : С потерями
ТекстФормат : RLEФормат/Информация : Run-length encodingБитовая глубина : 2 бит
ОбщееПолное имя : F:\MONAR.RU\Видео\История России и мира\1812\Диск 1. Серии 1-2\VIDEO_TS\VIDEO_TS.IFOФормат : DVD VideoПрофиль формата : MenuРазмер файла : 12,0 КбайтРежим общего битрейта : Переменный
ВидеоИдентификатор : 224 (0xE0)Формат : MPEG VideoВерсия формата : Version 2Вид битрейта : ПеременныйШирина : 720 пикселейВысота : 576 пикселейСоотношение сторон : 16:9Частота кадров : 25,000 кадров/секСтандарт вещания : PALМетод сжатия : С потерями
АудиоФормат : AC-3Формат/Информация : Audio Coding 3Каналы : 2 каналаЧастота : 48,0 КГцМетод сжатия : С потерями
ТекстФормат : RLEФормат/Информация : Run-length encodingБитовая глубина : 2 бит
ОбщееПолное имя : F:\MONAR.RU\Видео\История России и мира\1812\Диск 1. Серии 1-2\VIDEO_TS\VIDEO_TS.VOBФормат : MPEG-PSРазмер файла : 7,29 МбайтПродолжительность : 12 с.Режим общего битрейта : ПеременныйОбщий поток : 5042 Кбит/сек
ВидеоИдентификатор : 224 (0xE0)Формат : MPEG VideoВерсия формата : Version 2Профиль формата : Main@MainПараметр BVOP формата : ДаПараметр матрицы формата : ВыборочнаяПараметр GOP формата : VariableПродолжительность : 12 с.Вид битрейта : ПеременныйБитрейт : 4750 Кбит/секМаксимальный битрейт : 8000 Кбит/секШирина : 720 пикселейВысота : 576 пикселейСоотношение сторон : 16:9Частота кадров : 25,000 кадров/секСтандарт вещания : PALЦветовое пространство : YUVСубдискретизация насыщенности : 4:2:0Битовая глубина : 8 битТип развёртки : ЧересстрочнаяПорядок развёртки : Верхнее поле первоеМетод сжатия : С потерямиБит/(Пиксели*Кадры) : 0.458Временной код первого кадра : 00:00:00:00Оригинал временного кода : Group of pictures headerРазмер потока : 6,86 Мбайт (94%)
АудиоИдентификатор : 189 (0xBD)-128 (0x80)Формат : AC-3Формат/Информация : Audio Coding 3Расширение режима : CM (complete main)Параметр Endianness формата : BigРежим смешивания : DVD-VideoПродолжительность : 11 с.Вид битрейта : ПостоянныйБитрейт : 192 Кбит/секКаналы : 2 каналаРасположение каналов : Front: L RЧастота : 48,0 КГцБитовая глубина : 16 битМетод сжатия : С потерямиРазмер потока : 280 Кбайт (4%)
Текст #1Идентификатор : 189 (0xBD)-32 (0x20)Формат : RLEФормат/Информация : Run-length encodingРежим смешивания : DVD-Video
Текст #2Идентификатор : 189 (0xBD)-33 (0x21)Формат : RLEФормат/Информация : Run-length encodingРежим смешивания : DVD-Video
Текст #3Идентификатор : 189 (0xBD)-34 (0x22)Формат : RLEФормат/Информация : Run-length encodingРежим смешивания : DVD-Video
Меню
ОбщееПолное имя : F:\MONAR.RU\Видео\История России и мира\1812\Диск 1. Серии 1-2\VIDEO_TS\VTS_01_0.BUPФормат : DVD VideoПрофиль формата : ProgramРазмер файла : 70,0 КбайтПродолжительность : 51 м.Режим общего битрейта : ПеременныйОбщий поток : 186 бит/сек
ВидеоИдентификатор : 224 (0xE0)Формат : MPEG VideoВерсия формата : Version 2Продолжительность : 51 м.Вид битрейта : ПеременныйШирина : 720 пикселейВысота : 576 пикселейСоотношение сторон : 16:9Частота кадров : 25,000 кадров/секСтандарт вещания : PALМетод сжатия : С потерями
АудиоИдентификатор : 128 (0x80)Формат : AC-3Формат/Информация : Audio Coding 3Продолжительность : 51 м.Каналы : 6 каналовЧастота : 48,0 КГцМетод сжатия : С потерямиЯзык : Russian
Меню #1Продолжительность : 49 м.00:00:00.000 : Chapter 100:11:49.640 : Chapter 200:21:21.960 : Chapter 300:34:58.360 : Chapter 400:49:56.760 : Chapter 5List (Audio) : 0
Меню #2Продолжительность : 51 м.00:00:00.000 : Chapter 100:00:51.000 : Chapter 200:01:01.560 : Chapter 300:01:43.560 : Chapter 400:02:06.560 : Chapter 5List (Audio) : 0
ОбщееПолное имя : F:\MONAR.RU\Видео\История России и мира\1812\Диск 1. Серии 1-2\VIDEO_TS\VTS_01_0.IFOФормат : DVD VideoПрофиль формата : ProgramРазмер файла : 70,0 КбайтПродолжительность : 51 м.Режим общего битрейта : ПеременныйОбщий поток : 186 бит/сек
ВидеоИдентификатор : 224 (0xE0)Формат : MPEG VideoВерсия формата : Version 2Продолжительность : 51 м.Вид битрейта : ПеременныйШирина : 720 пикселейВысота : 576 пикселейСоотношение сторон : 16:9Частота кадров : 25,000 кадров/секСтандарт вещания : PALМетод сжатия : С потерями
АудиоИдентификатор : 128 (0x80)Формат : AC-3Формат/Информация : Audio Coding 3Продолжительность : 51 м.Каналы : 6 каналовЧастота : 48,0 КГцМетод сжатия : С потерямиЯзык : Russian
Меню #1Продолжительность : 49 м.00:00:00.000 : Chapter 100:11:49.640 : Chapter 200:21:21.960 : Chapter 300:34:58.360 : Chapter 400:49:56.760 : Chapter 5List (Audio) : 0
Меню #2Продолжительность : 51 м.00:00:00.000 : Chapter 100:00:51.000 : Chapter 200:01:01.560 : Chapter 300:01:43.560 : Chapter 400:02:06.560 : Chapter 5List (Audio) : 0
ОбщееПолное имя : F:\MONAR.RU\Видео\История России и мира\1812\Диск 1. Серии 1-2\VIDEO_TS\VTS_01_0.VOBФормат : MPEG-PSРазмер файла : 51,4 МбайтПродолжительность : 33 с.Режим общего битрейта : ПеременныйОбщий поток : 12,7 Мбит/секБиблиотека кодирования : (c) 1998-2011 Womble Multimedia, Inc. / MPEG Video Wizard DVD 5.0.1.100 (03/2011) / Sep 2 2011
ВидеоИдентификатор : 224 (0xE0)Формат : MPEG VideoВерсия формата : Version 2Профиль формата : Main@MainПараметр BVOP формата : ДаПараметр матрицы формата : По умолчаниюПараметр GOP формата : VariableПродолжительность : 33 с.Вид битрейта : ПеременныйБитрейт : 12,0 Мбит/секМаксимальный битрейт : 8500 Кбит/секШирина : 720 пикселейВысота : 576 пикселейСоотношение сторон : 16:9Частота кадров : 25,000 кадров/секСтандарт вещания : PALЦветовое пространство : YUVСубдискретизация насыщенности : 4:2:0Битовая глубина : 8 битТип развёртки : ПрогрессивнаяМетод сжатия : С потерямиБит/(Пиксели*Кадры) : 1.158Временной код первого кадра : 00:00:00:00Оригинал временного кода : Group of pictures headerРазмер потока : 48,6 Мбайт (94%)Библиотека кодирования : (c) 1998-2011 Womble Multimedia, Inc. / MPEG Video Wizard DVD 5.0.1.100 (03/2011) / Sep 2 2011Основные цвета : BT.601 PALХарактеристики трансфера : BT.470 System B, BT.470 System GКоэффициенты матрицы : BT.601
АудиоИдентификатор : 189 (0xBD)-128 (0x80)Формат : AC-3Формат/Информация : Audio Coding 3Расширение режима : CM (complete main)Параметр Endianness формата : BigРежим смешивания : DVD-VideoПродолжительность : 33 с.Вид битрейта : ПостоянныйБитрейт : 448 Кбит/секКаналы : 6 каналовРасположение каналов : Front: L C R, Side: L R, LFEЧастота : 48,0 КГцБитовая глубина : 16 битМетод сжатия : С потерямиРазмер потока : 1,80 Мбайт (4%)
Текст #1Идентификатор : 189 (0xBD)-32 (0x20)Формат : RLEФормат/Информация : Run-length encodingРежим смешивания : DVD-Video
Текст #2Идентификатор : 189 (0xBD)-33 (0x21)Формат : RLEФормат/Информация : Run-length encodingРежим смешивания : DVD-Video
Текст #3Идентификатор : 189 (0xBD)-34 (0x22)Формат : RLEФормат/Информация : Run-length encodingРежим смешивания : DVD-Video
Меню
ОбщееПолное имя : F:\MONAR.RU\Видео\История России и мира\1812\Диск 1. Серии 1-2\VIDEO_TS\VTS_01_1.VOBФормат : MPEG-PSРазмер файла : 1024 МбайтПродолжительность : 24 м.Режим общего битрейта : ПеременныйОбщий поток : 5882 Кбит/сек
ВидеоИдентификатор : 224 (0xE0)Формат : MPEG VideoВерсия формата : Version 2Профиль формата : Main@MainПараметр BVOP формата : ДаПараметр матрицы формата : ВыборочнаяПараметр GOP формата : M=3, N=15Продолжительность : 24 м.Вид битрейта : ПеременныйБитрейт : 5317 Кбит/секМаксимальный битрейт : 7600 Кбит/секШирина : 720 пикселейВысота : 576 пикселейСоотношение сторон : 16:9Частота кадров : 25,000 кадров/секСтандарт вещания : PALЦветовое пространство : YUVСубдискретизация насыщенности : 4:2:0Битовая глубина : 8 битТип развёртки : ЧересстрочнаяПорядок развёртки : Верхнее поле первоеМетод сжатия : С потерямиБит/(Пиксели*Кадры) : 0.513Временной код первого кадра : 00:00:00:00Оригинал временного кода : Group of pictures headerРазмер потока : 926 Мбайт (90%)
АудиоИдентификатор : 189 (0xBD)-128 (0x80)Формат : AC-3Формат/Информация : Audio Coding 3Расширение режима : CM (complete main)Параметр Endianness формата : BigРежим смешивания : DVD-VideoПродолжительность : 24 м.Вид битрейта : ПостоянныйБитрейт : 448 Кбит/секКаналы : 6 каналовРасположение каналов : Front: L C R, Side: L R, LFEЧастота : 48,0 КГцБитовая глубина : 16 битМетод сжатия : С потерямиРазмер потока : 78,0 Мбайт (8%)
Меню
ОбщееПолное имя : F:\MONAR.RU\Видео\История России и мира\1812\Диск 1. Серии 1-2\VIDEO_TS\VTS_01_2.VOBФормат : MPEG-PSРазмер файла : 1024 МбайтПродолжительность : 25 м.Режим общего битрейта : ПеременныйОбщий поток : 5641 Кбит/сек
ВидеоИдентификатор : 224 (0xE0)Формат : MPEG VideoВерсия формата : Version 2Профиль формата : Main@MainПараметр BVOP формата : ДаПараметр матрицы формата : ВыборочнаяПараметр GOP формата : M=3, N=15Продолжительность : 25 м.Вид битрейта : ПеременныйБитрейт : 5080 Кбит/секМаксимальный битрейт : 7600 Кбит/секШирина : 720 пикселейВысота : 576 пикселейСоотношение сторон : 16:9Частота кадров : 25,000 кадров/секСтандарт вещания : PALЦветовое пространство : YUVСубдискретизация насыщенности : 4:2:0Битовая глубина : 8 битТип развёртки : ЧересстрочнаяПорядок развёртки : Верхнее поле первоеМетод сжатия : С потерямиБит/(Пиксели*Кадры) : 0.490Временной код первого кадра : 00:24:20:19Оригинал временного кода : Group of pictures headerРазмер потока : 922 Мбайт (90%)
АудиоИдентификатор : 189 (0xBD)-128 (0x80)Формат : AC-3Формат/Информация : Audio Coding 3Расширение режима : CM (complete main)Параметр Endianness формата : BigРежим смешивания : DVD-VideoПродолжительность : 25 м.Вид битрейта : ПостоянныйБитрейт : 448 Кбит/секКаналы : 6 каналовРасположение каналов : Front: L C R, Side: L R, LFEЧастота : 48,0 КГцБитовая глубина : 16 битМетод сжатия : С потерямиЗадержка видео : -840 мс.Размер потока : 81,3 Мбайт (8%)
Меню
ОбщееПолное имя : F:\MONAR.RU\Видео\История России и мира\1812\Диск 1. Серии 1-2\VIDEO_TS\VTS_01_3.VOBФормат : MPEG-PSРазмер файла : 1024 МбайтРежим общего битрейта : Переменный
ВидеоИдентификатор : 224 (0xE0)Формат : MPEG VideoВерсия формата : Version 2Профиль формата : Main@MainПараметр BVOP формата : ДаПараметр матрицы формата : ВыборочнаяПараметр GOP формата : M=3, N=15Вид битрейта : ПеременныйМаксимальный битрейт : 7600 Кбит/секШирина : 720 пикселейВысота : 576 пикселейСоотношение сторон : 16:9Частота кадров : 25,000 кадров/секСтандарт вещания : PALЦветовое пространство : YUVСубдискретизация насыщенности : 4:2:0Битовая глубина : 8 битТип развёртки : ЧересстрочнаяПорядок развёртки : Верхнее поле первоеМетод сжатия : С потерямиВременной код первого кадра : 00:49:43:14Оригинал временного кода : Group of pictures header
АудиоИдентификатор : 189 (0xBD)-128 (0x80)Формат : AC-3Формат/Информация : Audio Coding 3Расширение режима : CM (complete main)Параметр Endianness формата : BigРежим смешивания : DVD-VideoВид битрейта : ПостоянныйБитрейт : 448 Кбит/секКаналы : 6 каналовРасположение каналов : Front: L C R, Side: L R, LFEЧастота : 48,0 КГцБитовая глубина : 16 битМетод сжатия : С потерямиЗадержка видео : -760 мс.
Меню
ОбщееПолное имя : F:\MONAR.RU\Видео\История России и мира\1812\Диск 1. Серии 1-2\VIDEO_TS\VTS_01_4.VOBФормат : MPEG-PSРазмер файла : 1024 МбайтПродолжительность : 26 м.Режим общего битрейта : ПеременныйОбщий поток : 5356 Кбит/сек
ВидеоИдентификатор : 224 (0xE0)Формат : MPEG VideoВерсия формата : Version 2Профиль формата : Main@MainПараметр BVOP формата : ДаПараметр матрицы формата : ВыборочнаяПараметр GOP формата : M=3, N=15Продолжительность : 26 м.Вид битрейта : ПеременныйБитрейт : 4802 Кбит/секМаксимальный битрейт : 7600 Кбит/секШирина : 720 пикселейВысота : 576 пикселейСоотношение сторон : 16:9Частота кадров : 25,000 кадров/секСтандарт вещания : PALЦветовое пространство : YUVСубдискретизация насыщенности : 4:2:0Битовая глубина : 8 битТип развёртки : ЧересстрочнаяПорядок развёртки : Верхнее поле первоеМетод сжатия : С потерямиБит/(Пиксели*Кадры) : 0.463Временной код первого кадра : 00:22:58:14Оригинал временного кода : Group of pictures headerРазмер потока : 918 Мбайт (90%)
АудиоИдентификатор : 189 (0xBD)-128 (0x80)Формат : AC-3Формат/Информация : Audio Coding 3Расширение режима : CM (complete main)Параметр Endianness формата : BigРежим смешивания : DVD-VideoПродолжительность : 26 м.Вид битрейта : ПостоянныйБитрейт : 448 Кбит/секКаналы : 6 каналовРасположение каналов : Front: L C R, Side: L R, LFEЧастота : 48,0 КГцБитовая глубина : 16 битМетод сжатия : С потерямиЗадержка видео : -496 мс.Размер потока : 85,6 Мбайт (8%)
Меню
ОбщееПолное имя : F:\MONAR.RU\Видео\История России и мира\1812\Диск 1. Серии 1-2\VIDEO_TS\VTS_01_5.VOBФормат : MPEG-PSРазмер файла : 141 МбайтРежим общего битрейта : Переменный
ВидеоИдентификатор : 224 (0xE0)Формат : MPEG VideoВерсия формата : Version 2Профиль формата : Main@MainПараметр BVOP формата : ДаПараметр матрицы формата : ВыборочнаяПараметр GOP формата : VariableВид битрейта : ПеременныйМаксимальный битрейт : 7600 Кбит/секШирина : 720 пикселейВысота : 576 пикселейСоотношение сторон : 16:9Частота кадров : 25,000 кадров/секСтандарт вещания : PALЦветовое пространство : YUVСубдискретизация насыщенности : 4:2:0Битовая глубина : 8 битТип развёртки : ЧересстрочнаяПорядок развёртки : Верхнее поле первоеМетод сжатия : С потерямиВременной код первого кадра : 00:49:42:12Оригинал временного кода : Group of pictures header
АудиоИдентификатор : 189 (0xBD)-128 (0x80)Формат : AC-3Формат/Информация : Audio Coding 3Расширение режима : CM (complete main)Параметр Endianness формата : BigРежим смешивания : DVD-VideoВид битрейта : ПостоянныйБитрейт : 448 Кбит/секКаналы : 6 каналовРасположение каналов : Front: L C R, Side: L R, LFEЧастота : 48,0 КГцБитовая глубина : 16 битМетод сжатия : С потерямиЗадержка видео : -640 мс.
Меню

Скриншоты меню

Скриншоты

Анаморфированные скриншоты

Диск 2. Серии 3-4

3-я серия. "Бородино"
Третий фильм 4-х серийного проекта "1812" рассказывает о главном сражении войны 1812 года и о сожжённой, но не покорившейся Наполеону Москве.
Правый фланг позиции русских у Бородина защищала 1-я армия Барклая-де-Толли - 76 тысяч человек и 480 орудий. От противника ее отделяла река Колоча. Эта группировка прикрывала московское направление и могла при необходимости наносить удары по флангу и в тылу французских войск. На левом фланге находилась 2-я армия Багратиона - 34 тысячи человек и 156 орудий. Здесь не было таких естественных препятствий перед фронтом, как на правом фланге. Правее на кургане находилась батарея генерала Раевского.
Наполеон, зная о слабой позиции левого фланга русских, решил нанести главный удар именно по нему. Он предполагал отвлечь внимание противника захватом деревни Бородино, а затем нанести главный удар. Далее планировалось оттеснить армию Кутузова к Москве-реке, где она сливалась с Колочей, и уничтожить.
По плану Наполеона, в отвлекающих противника действиях должно было принять участие не более 20 тысяч солдат. Основная же масса войск - 115 тысяч – атаковала позиции Багратиона. Общая численность французской армии составляла 135 тысяч человек и 587 орудий.
Кутузов имел в своем распоряжении 112 тысяч солдат регулярных войск, 624 орудия, около 7 тысяч казаков и по разным оценкам от 10 до 20 тысяч человек ополчения. Вооруженные в основном пиками ополченцы участия в битве практически не принимали.
После окончания Бородинского сражения Кутузов отправил Александру I реляцию с сообщением о победе. А французы считали победителями себя. Но решить главную задачу - разгромить армию Кутузова - Наполеон не сумел. Это и предопределило его поражение в войне. Позже Наполеон напишет в своих воспоминаниях: ""Из всех моих сражений самое ужасное то, которое я дал под Москвой. Французы в нeм показали себя достойными одержать победу, а русские стяжали право быть непобедимыми... Из пятидесяти сражений, мною данных, в битве под Москвой выказано наиболее доблести и одержан наименьший успех".
4-я серия. "Изгнание"
В охваченной пожарами Москве Наполеон ждал ответа от Александра I. Трижды французский император предлагал заключить мир, но русский царь молчал. Непобежденная русская армия стояла в нескольких десятках километров от Москвы. В тылу партизаны громили французские обозы и отряды. Сожжeнный город - вот все, что досталось Наполеону в России.
Он понимал, что оставаться зимовать в разорeнном городе, с армией, которую интересовала только добыча, немыслимо. Император предложил сжечь то, что еще осталось в Москве, и идти на Санкт-Петербург. Но маршалы считали этот план невыполнимым. Идти в преддверии зимы на север с малочисленной после боев армией, имея в тылу войска Кутузова, было бы безумием. В начале октября французская армия покинула Москву…
…По данным историков, в июне 1812 года в Россию вторглись до 450 тысяч солдат наполеоновской армии. Позже в виде подкреплений прибыло ещe 140 тысяч. А всего через шесть месяцев, в декабре, через реку Неман в Польшу переправилась тысяча шестьсот человек. К ним присоединились остатки войск с других направлений. По подсчетам прусского чиновника Ауэрсвальда через Восточную Пруссию из России прошло: 255 французских генералов, 5111 офицеров, 26950 низших чинов. "Все в жалком состоянии и в основном безоружные" - писал Ауэрсвальд.
По мнению русского историка Богдановича потери русских войск за военную кампанию составили около 210 тысяч солдат и ополченцев.
Видео: 5442 Кбит/сек, 720*576 (16:9), в 25,000 кадров/сек, MPEG2
Аудио: Русский, 448 Кбит/сек, 48,0 КГц, 16 бит, 6 каналов, AC-3
Сэмпл: https://www.sendspace.com/file/6l98io

DVDInfo

Title: Data2Size: 4.25 Gb ( 4 451 528 KBytes ) - DVD-5Enabled regions: 1, 2, 3, 4, 5, 6, 7, 8
VTS_01 : Play Length: 00:50:58+00:51:52+00:01:13 Video: PAL 16:9 (720x576) VBR, Auto Pan&Scan Audio: Russian (Dolby AC3, 6 ch)
Menu Video: PAL 16:9 (720x576) VBR Auto Pan&ScanMenu Audio: Not specified (Dolby AC3, 2 ch)Menu Subtitles: Not specifiedMenu English Language Unit : Root Menu

MediaInfo

ОбщееПолное имя                               : F:\MONAR.RU\Видео\История России и мира\1812\Диск 2. Серии 3-4\VIDEO_TS\VIDEO_TS.BUPФормат                                   : DVD VideoПрофиль формата                          : MenuРазмер файла                             : 12,0 КбайтРежим общего битрейта                    : Переменный
ВидеоИдентификатор : 224 (0xE0)Формат : MPEG VideoВерсия формата : Version 2Вид битрейта : ПеременныйШирина : 720 пикселейВысота : 576 пикселейСоотношение сторон : 16:9Частота кадров : 25,000 кадров/секСтандарт вещания : PALМетод сжатия : С потерями
АудиоФормат : AC-3Формат/Информация : Audio Coding 3Каналы : 2 каналаЧастота : 48,0 КГцМетод сжатия : С потерями
ТекстФормат : RLEФормат/Информация : Run-length encodingБитовая глубина : 2 бит
ОбщееПолное имя : F:\MONAR.RU\Видео\История России и мира\1812\Диск 2. Серии 3-4\VIDEO_TS\VIDEO_TS.IFOФормат : DVD VideoПрофиль формата : MenuРазмер файла : 12,0 КбайтРежим общего битрейта : Переменный
ВидеоИдентификатор : 224 (0xE0)Формат : MPEG VideoВерсия формата : Version 2Вид битрейта : ПеременныйШирина : 720 пикселейВысота : 576 пикселейСоотношение сторон : 16:9Частота кадров : 25,000 кадров/секСтандарт вещания : PALМетод сжатия : С потерями
АудиоФормат : AC-3Формат/Информация : Audio Coding 3Каналы : 2 каналаЧастота : 48,0 КГцМетод сжатия : С потерями
ТекстФормат : RLEФормат/Информация : Run-length encodingБитовая глубина : 2 бит
ОбщееПолное имя : F:\MONAR.RU\Видео\История России и мира\1812\Диск 2. Серии 3-4\VIDEO_TS\VIDEO_TS.VOBФормат : MPEG-PSРазмер файла : 7,29 МбайтПродолжительность : 12 с.Режим общего битрейта : ПеременныйОбщий поток : 5042 Кбит/сек
ВидеоИдентификатор : 224 (0xE0)Формат : MPEG VideoВерсия формата : Version 2Профиль формата : Main@MainПараметр BVOP формата : ДаПараметр матрицы формата : ВыборочнаяПараметр GOP формата : VariableПродолжительность : 12 с.Вид битрейта : ПеременныйБитрейт : 4750 Кбит/секМаксимальный битрейт : 8000 Кбит/секШирина : 720 пикселейВысота : 576 пикселейСоотношение сторон : 16:9Частота кадров : 25,000 кадров/секСтандарт вещания : PALЦветовое пространство : YUVСубдискретизация насыщенности : 4:2:0Битовая глубина : 8 битТип развёртки : ЧересстрочнаяПорядок развёртки : Верхнее поле первоеМетод сжатия : С потерямиБит/(Пиксели*Кадры) : 0.458Временной код первого кадра : 00:00:00:00Оригинал временного кода : Group of pictures headerРазмер потока : 6,86 Мбайт (94%)
АудиоИдентификатор : 189 (0xBD)-128 (0x80)Формат : AC-3Формат/Информация : Audio Coding 3Расширение режима : CM (complete main)Параметр Endianness формата : BigРежим смешивания : DVD-VideoПродолжительность : 11 с.Вид битрейта : ПостоянныйБитрейт : 192 Кбит/секКаналы : 2 каналаРасположение каналов : Front: L RЧастота : 48,0 КГцБитовая глубина : 16 битМетод сжатия : С потерямиРазмер потока : 280 Кбайт (4%)
Текст #1Идентификатор : 189 (0xBD)-32 (0x20)Формат : RLEФормат/Информация : Run-length encodingРежим смешивания : DVD-Video
Текст #2Идентификатор : 189 (0xBD)-33 (0x21)Формат : RLEФормат/Информация : Run-length encodingРежим смешивания : DVD-Video
Текст #3Идентификатор : 189 (0xBD)-34 (0x22)Формат : RLEФормат/Информация : Run-length encodingРежим смешивания : DVD-Video
Меню
ОбщееПолное имя : F:\MONAR.RU\Видео\История России и мира\1812\Диск 2. Серии 3-4\VIDEO_TS\VTS_01_0.BUPФормат : DVD VideoПрофиль формата : ProgramРазмер файла : 70,0 КбайтПродолжительность : 51 м.Режим общего битрейта : ПеременныйОбщий поток : 184 бит/сек
ВидеоИдентификатор : 224 (0xE0)Формат : MPEG VideoВерсия формата : Version 2Продолжительность : 51 м.Вид битрейта : ПеременныйШирина : 720 пикселейВысота : 576 пикселейСоотношение сторон : 16:9Частота кадров : 25,000 кадров/секСтандарт вещания : PALМетод сжатия : С потерями
АудиоИдентификатор : 128 (0x80)Формат : AC-3Формат/Информация : Audio Coding 3Продолжительность : 51 м.Каналы : 6 каналовЧастота : 48,0 КГцМетод сжатия : С потерямиЯзык : Russian
Меню #1Продолжительность : 50 м.00:00:00.000 : Chapter 100:11:27.200 : Chapter 200:23:39.040 : Chapter 300:37:33.200 : Chapter 400:50:57.000 : Chapter 5List (Audio) : 0
Меню #2Продолжительность : 51 м.00:00:00.000 : Chapter 100:00:28.000 : Chapter 200:00:39.000 : Chapter 300:01:09.000 : Chapter 400:01:41.000 : Chapter 5List (Audio) : 0
ОбщееПолное имя : F:\MONAR.RU\Видео\История России и мира\1812\Диск 2. Серии 3-4\VIDEO_TS\VTS_01_0.IFOФормат : DVD VideoПрофиль формата : ProgramРазмер файла : 70,0 КбайтПродолжительность : 51 м.Режим общего битрейта : ПеременныйОбщий поток : 184 бит/сек
ВидеоИдентификатор : 224 (0xE0)Формат : MPEG VideoВерсия формата : Version 2Продолжительность : 51 м.Вид битрейта : ПеременныйШирина : 720 пикселейВысота : 576 пикселейСоотношение сторон : 16:9Частота кадров : 25,000 кадров/секСтандарт вещания : PALМетод сжатия : С потерями
АудиоИдентификатор : 128 (0x80)Формат : AC-3Формат/Информация : Audio Coding 3Продолжительность : 51 м.Каналы : 6 каналовЧастота : 48,0 КГцМетод сжатия : С потерямиЯзык : Russian
Меню #1Продолжительность : 50 м.00:00:00.000 : Chapter 100:11:27.200 : Chapter 200:23:39.040 : Chapter 300:37:33.200 : Chapter 400:50:57.000 : Chapter 5List (Audio) : 0
Меню #2Продолжительность : 51 м.00:00:00.000 : Chapter 100:00:28.000 : Chapter 200:00:39.000 : Chapter 300:01:09.000 : Chapter 400:01:41.000 : Chapter 5List (Audio) : 0
ОбщееПолное имя : F:\MONAR.RU\Видео\История России и мира\1812\Диск 2. Серии 3-4\VIDEO_TS\VTS_01_0.VOBФормат : MPEG-PSРазмер файла : 51,0 МбайтПродолжительность : 33 с.Режим общего битрейта : ПеременныйОбщий поток : 12,6 Мбит/секБиблиотека кодирования : (c) 1998-2011 Womble Multimedia, Inc. / MPEG Video Wizard DVD 5.0.1.100 (03/2011) / Sep 2 2011
ВидеоИдентификатор : 224 (0xE0)Формат : MPEG VideoВерсия формата : Version 2Профиль формата : Main@MainПараметр BVOP формата : ДаПараметр матрицы формата : По умолчаниюПараметр GOP формата : VariableПродолжительность : 33 с.Вид битрейта : ПеременныйБитрейт : 11,9 Мбит/секМаксимальный битрейт : 8500 Кбит/секШирина : 720 пикселейВысота : 576 пикселейСоотношение сторон : 16:9Частота кадров : 25,000 кадров/секСтандарт вещания : PALЦветовое пространство : YUVСубдискретизация насыщенности : 4:2:0Битовая глубина : 8 битТип развёртки : ПрогрессивнаяМетод сжатия : С потерямиБит/(Пиксели*Кадры) : 1.148Временной код первого кадра : 00:00:00:00Оригинал временного кода : Group of pictures headerРазмер потока : 48,2 Мбайт (94%)Библиотека кодирования : (c) 1998-2011 Womble Multimedia, Inc. / MPEG Video Wizard DVD 5.0.1.100 (03/2011) / Sep 2 2011Основные цвета : BT.601 PALХарактеристики трансфера : BT.470 System B, BT.470 System GКоэффициенты матрицы : BT.601
АудиоИдентификатор : 189 (0xBD)-128 (0x80)Формат : AC-3Формат/Информация : Audio Coding 3Расширение режима : CM (complete main)Параметр Endianness формата : BigРежим смешивания : DVD-VideoПродолжительность : 33 с.Вид битрейта : ПостоянныйБитрейт : 448 Кбит/секКаналы : 6 каналовРасположение каналов : Front: L C R, Side: L R, LFEЧастота : 48,0 КГцБитовая глубина : 16 битМетод сжатия : С потерямиРазмер потока : 1,80 Мбайт (4%)
Текст #1Идентификатор : 189 (0xBD)-32 (0x20)Формат : RLEФормат/Информация : Run-length encodingРежим смешивания : DVD-Video
Текст #2Идентификатор : 189 (0xBD)-33 (0x21)Формат : RLEФормат/Информация : Run-length encodingРежим смешивания : DVD-Video
Текст #3Идентификатор : 189 (0xBD)-34 (0x22)Формат : RLEФормат/Информация : Run-length encodingРежим смешивания : DVD-Video
Меню
ОбщееПолное имя : F:\MONAR.RU\Видео\История России и мира\1812\Диск 2. Серии 3-4\VIDEO_TS\VTS_01_1.VOBФормат : MPEG-PSРазмер файла : 1024 МбайтПродолжительность : 23 м.Режим общего битрейта : ПеременныйОбщий поток : 6010 Кбит/сек
ВидеоИдентификатор : 224 (0xE0)Формат : MPEG VideoВерсия формата : Version 2Профиль формата : Main@MainПараметр BVOP формата : ДаПараметр матрицы формата : ВыборочнаяПараметр GOP формата : M=3, N=15Продолжительность : 23 м.Вид битрейта : ПеременныйБитрейт : 5442 Кбит/секМаксимальный битрейт : 7600 Кбит/секШирина : 720 пикселейВысота : 576 пикселейСоотношение сторон : 16:9Частота кадров : 25,000 кадров/секСтандарт вещания : PALЦветовое пространство : YUVСубдискретизация насыщенности : 4:2:0Битовая глубина : 8 битТип развёртки : ЧересстрочнаяПорядок развёртки : Верхнее поле первоеМетод сжатия : С потерямиБит/(Пиксели*Кадры) : 0.525Временной код первого кадра : 00:00:00:00Оригинал временного кода : Group of pictures headerРазмер потока : 927 Мбайт (91%)
АудиоИдентификатор : 189 (0xBD)-128 (0x80)Формат : AC-3Формат/Информация : Audio Coding 3Расширение режима : CM (complete main)Параметр Endianness формата : BigРежим смешивания : DVD-VideoПродолжительность : 23 м.Вид битрейта : ПостоянныйБитрейт : 448 Кбит/секКаналы : 6 каналовРасположение каналов : Front: L C R, Side: L R, LFEЧастота : 48,0 КГцБитовая глубина : 16 битМетод сжатия : С потерямиРазмер потока : 76,3 Мбайт (7%)
Меню
ОбщееПолное имя : F:\MONAR.RU\Видео\История России и мира\1812\Диск 2. Серии 3-4\VIDEO_TS\VTS_01_2.VOBФормат : MPEG-PSРазмер файла : 1024 МбайтПродолжительность : 25 м.Режим общего битрейта : ПеременныйОбщий поток : 5524 Кбит/сек
ВидеоИдентификатор : 224 (0xE0)Формат : MPEG VideoВерсия формата : Version 2Профиль формата : Main@MainПараметр BVOP формата : ДаПараметр матрицы формата : ВыборочнаяПараметр GOP формата : M=3, N=15Продолжительность : 25 м.Вид битрейта : ПеременныйБитрейт : 4966 Кбит/секМаксимальный битрейт : 7600 Кбит/секШирина : 720 пикселейВысота : 576 пикселейСоотношение сторон : 16:9Частота кадров : 25,000 кадров/секСтандарт вещания : PALЦветовое пространство : YUVСубдискретизация насыщенности : 4:2:0Битовая глубина : 8 битТип развёртки : ЧересстрочнаяПорядок развёртки : Верхнее поле первоеМетод сжатия : С потерямиБит/(Пиксели*Кадры) : 0.479Временной код первого кадра : 00:23:49:21Оригинал временного кода : Group of pictures headerРазмер потока : 920 Мбайт (90%)
АудиоИдентификатор : 189 (0xBD)-128 (0x80)Формат : AC-3Формат/Информация : Audio Coding 3Расширение режима : CM (complete main)Параметр Endianness формата : BigРежим смешивания : DVD-VideoПродолжительность : 25 м.Вид битрейта : ПостоянныйБитрейт : 448 Кбит/секКаналы : 6 каналовРасположение каналов : Front: L C R, Side: L R, LFEЧастота : 48,0 КГцБитовая глубина : 16 битМетод сжатия : С потерямиЗадержка видео : -864 мс.Размер потока : 83,1 Мбайт (8%)
Меню
ОбщееПолное имя : F:\MONAR.RU\Видео\История России и мира\1812\Диск 2. Серии 3-4\VIDEO_TS\VTS_01_3.VOBФормат : MPEG-PSРазмер файла : 1024 МбайтРежим общего битрейта : Переменный
ВидеоИдентификатор : 224 (0xE0)Формат : MPEG VideoВерсия формата : Version 2Профиль формата : Main@MainПараметр BVOP формата : ДаПараметр матрицы формата : ВыборочнаяПараметр GOP формата : M=3, N=15Вид битрейта : ПеременныйМаксимальный битрейт : 7600 Кбит/секШирина : 720 пикселейВысота : 576 пикселейСоотношение сторон : 16:9Частота кадров : 25,000 кадров/секСтандарт вещания : PALЦветовое пространство : YUVСубдискретизация насыщенности : 4:2:0Битовая глубина : 8 битТип развёртки : ЧересстрочнаяПорядок развёртки : Верхнее поле первоеМетод сжатия : С потерямиВременной код первого кадра : 00:49:45:00Оригинал временного кода : Group of pictures header
АудиоИдентификатор : 189 (0xBD)-128 (0x80)Формат : AC-3Формат/Информация : Audio Coding 3Расширение режима : CM (complete main)Параметр Endianness формата : BigРежим смешивания : DVD-VideoВид битрейта : ПостоянныйБитрейт : 448 Кбит/секКаналы : 6 каналовРасположение каналов : Front: L C R, Side: L R, LFEЧастота : 48,0 КГцБитовая глубина : 16 битМетод сжатия : С потерямиЗадержка видео : -856 мс.
Меню
ОбщееПолное имя : F:\MONAR.RU\Видео\История России и мира\1812\Диск 2. Серии 3-4\VIDEO_TS\VTS_01_4.VOBФормат : MPEG-PSРазмер файла : 1024 МбайтПродолжительность : 24 м.Режим общего битрейта : ПеременныйОбщий поток : 5822 Кбит/сек
ВидеоИдентификатор : 224 (0xE0)Формат : MPEG VideoВерсия формата : Version 2Профиль формата : Main@MainПараметр BVOP формата : ДаПараметр матрицы формата : ВыборочнаяПараметр GOP формата : M=3, N=15Продолжительность : 24 м.Вид битрейта : ПеременныйБитрейт : 5258 Кбит/секМаксимальный битрейт : 7600 Кбит/секШирина : 720 пикселейВысота : 576 пикселейСоотношение сторон : 16:9Частота кадров : 25,000 кадров/секСтандарт вещания : PALЦветовое пространство : YUVСубдискретизация насыщенности : 4:2:0Битовая глубина : 8 битТип развёртки : ЧересстрочнаяПорядок развёртки : Верхнее поле первоеМетод сжатия : С потерямиБит/(Пиксели*Кадры) : 0.507Временной код первого кадра : 00:23:53:07Оригинал временного кода : Group of pictures headerРазмер потока : 925 Мбайт (90%)
АудиоИдентификатор : 189 (0xBD)-128 (0x80)Формат : AC-3Формат/Информация : Audio Coding 3Расширение режима : CM (complete main)Параметр Endianness формата : BigРежим смешивания : DVD-VideoПродолжительность : 24 м.Вид битрейта : ПостоянныйБитрейт : 448 Кбит/секКаналы : 6 каналовРасположение каналов : Front: L C R, Side: L R, LFEЧастота : 48,0 КГцБитовая глубина : 16 битМетод сжатия : С потерямиЗадержка видео : -496 мс.Размер потока : 78,8 Мбайт (8%)
Меню
ОбщееПолное имя : F:\MONAR.RU\Видео\История России и мира\1812\Диск 2. Серии 3-4\VIDEO_TS\VTS_01_5.VOBФормат : MPEG-PSРазмер файла : 193 МбайтРежим общего битрейта : Переменный
ВидеоИдентификатор : 224 (0xE0)Формат : MPEG VideoВерсия формата : Version 2Профиль формата : Main@MainПараметр BVOP формата : ДаПараметр матрицы формата : ВыборочнаяПараметр GOP формата : VariableВид битрейта : ПеременныйМаксимальный битрейт : 7600 Кбит/секШирина : 720 пикселейВысота : 576 пикселейСоотношение сторон : 16:9Частота кадров : 25,000 кадров/секСтандарт вещания : PALЦветовое пространство : YUVСубдискретизация насыщенности : 4:2:0Битовая глубина : 8 битТип развёртки : ЧересстрочнаяПорядок развёртки : Верхнее поле первоеМетод сжатия : С потерямиВременной код первого кадра : 00:48:28:19Оригинал временного кода : Group of pictures header
АудиоИдентификатор : 189 (0xBD)-128 (0x80)Формат : AC-3Формат/Информация : Audio Coding 3Расширение режима : CM (complete main)Параметр Endianness формата : BigРежим смешивания : DVD-VideoВид битрейта : ПостоянныйБитрейт : 448 Кбит/секКаналы : 6 каналовРасположение каналов : Front: L C R, Side: L R, LFEЧастота : 48,0 КГцБитовая глубина : 16 битМетод сжатия : С потерямиЗадержка видео : -648 мс.
Меню

Скриншоты меню

Скриншоты

Анаморфированные скриншоты

[Profile]  [PM] 
Display posts:    
Reply to topic

Current time is: 17-Oct 19:33

All times are UTC + 2



You cannot post new topics in this forum
You cannot reply to topics in this forum
You cannot edit your posts in this forum
You cannot delete your posts in this forum
You cannot vote in polls in this forum
You cannot attach files in this forum
You cannot download files in this forum