Зимняя война (8 серий) (Виктор Правдюк) [2014 г., Исторический, 2 x DVD5]

Reply to topic
 
Author
Message

Atila ®

Gender: Unknown

Longevity: 7 years 4 months

Posts: 2497

Reputation: 0 [+] [-]

Atila · Post 08-Oct-2014 00:20

[Quote] 

Зимняя война (8 серий)
Год выпуска: 2014
Страна: Россия
Жанр: Исторический
Продолжительность: 8 x ~00:26:00 (8 ~ 03:38:00)
Перевод: Не требуется
Русские субтитры: нет
Режиссер: В. Правдюк
Описание: Новый документальный сериал Виктора Правдюка «Зимняя война» рассказывает о вооружённом конфликте между СССР и Финляндией в период с 30 ноября 1939 года по 13 марта 1940 года.
Смотрите:
- незнаменитая война;
- тайна война против Суоми;
- 105 дней и 30 лет войны;
- покаяние перед соседом.
Диск 1.
1. Накопление агрессии
2. Накануне
3. Линия Маннергейма
4. Зимний ужас
Доп. информация: При участии историков Кирилла Александрова и Андрея Терещука. Монтаж - Сергей Правдюк. Оператор - Антон Правдюк.
Бонусы: Отсутствуют.
Меню: Имеется, русский, динамичное, неозвученное.
Сэмпл: https://www.sendspace.com/file/5f52ua
Главы (разбивка по трекам): есть
Качество: DVD5
Формат: DVD Video
Видео кодек: MPEG2
Аудио кодек: AC3
Видео: PAL 720x576 (4:3), VBR ~ 5282-5360 Кбит/с, 25 кадров/сек
Аудио: Русский, 224 Кбит/сек, 48,0 КГц, 2 канала, MP2

DVDInfo

Title: Диск 1Size: 4.12 Gb ( 4 315 780 KBytes ) - DVD-5Enabled regions: 1, 2, 3, 4, 5, 6, 7, 8
VTS_01 : Play Length: 00:26:03 Video: PAL 4:3 (720x576) VBR Audio: Russian (MPEG1, 2 ch)
VTS_02 : Play Length: 00:25:56 Video: PAL 4:3 (720x576) VBR Audio: Russian (MPEG1, 2 ch)
VTS_03 : Play Length: 00:25:59 Video: PAL 4:3 (720x576) VBR Audio: Russian (MPEG1, 2 ch)
VTS_04 : Play Length: 00:26:00 Video: PAL 4:3 (720x576) VBR Audio: Russian (MPEG1, 2 ch)
Menu Video: PAL 4:3 (720x576) VBRMenu Subtitles: Not specifiedMenu English Language Unit : Root Menu

MediaInfo

ОбщееПолное имя                               : F:\MONAR.RU\Видео\История России и мира\Зимняя война\Диск 1\VIDEO_TS\VIDEO_TS.BUPФормат                                   : DVD VideoПрофиль формата                          : MenuРазмер файла                             : 16,0 КбайтРежим общего битрейта                    : Переменный
ВидеоИдентификатор : 224 (0xE0)Формат : MPEG VideoВерсия формата : Version 2Вид битрейта : ПеременныйШирина : 720 пикселейВысота : 576 пикселейСоотношение сторон : 4:3Частота кадров : 25,000 кадров/секСтандарт вещания : PALМетод сжатия : С потерями
ТекстФормат : RLEФормат/Информация : Run-length encodingБитовая глубина : 2 бит
ОбщееПолное имя : F:\MONAR.RU\Видео\История России и мира\Зимняя война\Диск 1\VIDEO_TS\VIDEO_TS.IFOФормат : DVD VideoПрофиль формата : MenuРазмер файла : 16,0 КбайтРежим общего битрейта : Переменный
ВидеоИдентификатор : 224 (0xE0)Формат : MPEG VideoВерсия формата : Version 2Вид битрейта : ПеременныйШирина : 720 пикселейВысота : 576 пикселейСоотношение сторон : 4:3Частота кадров : 25,000 кадров/секСтандарт вещания : PALМетод сжатия : С потерями
ТекстФормат : RLEФормат/Информация : Run-length encodingБитовая глубина : 2 бит
ОбщееПолное имя : F:\MONAR.RU\Видео\История России и мира\Зимняя война\Диск 1\VIDEO_TS\VIDEO_TS.VOBФормат : MPEG-PSРазмер файла : 10,0 КбайтПродолжительность : 40 мс.Общий поток : 2048 Кбит/сек
ВидеоИдентификатор : 224 (0xE0)Формат : MPEG VideoВерсия формата : Version 2Профиль формата : Main@MainПараметр BVOP формата : НетПараметр матрицы формата : ВыборочнаяПродолжительность : 40 мс.Максимальный битрейт : 9000 Кбит/секШирина : 720 пикселейВысота : 576 пикселейСоотношение сторон : 4:3Частота кадров : 25,000 кадров/секСтандарт вещания : PALЦветовое пространство : YUVСубдискретизация насыщенности : 4:2:0Битовая глубина : 8 битТип развёртки : ПрогрессивнаяПорядок развёртки : Верхнее поле первоеМетод сжатия : С потерямиВременной код первого кадра : 00:00:00:00Оригинал временного кода : Group of pictures headerОсновные цвета : BT.601 NTSCХарактеристики трансфера : BT.601Коэффициенты матрицы : BT.601
Меню
ОбщееПолное имя : F:\MONAR.RU\Видео\История России и мира\Зимняя война\Диск 1\VIDEO_TS\VTS_01_0.BUPФормат : DVD VideoПрофиль формата : ProgramРазмер файла : 32,0 КбайтПродолжительность : 26 м.Режим общего битрейта : ПеременныйОбщий поток : 168 бит/сек
ВидеоИдентификатор : 224 (0xE0)Формат : MPEG VideoВерсия формата : Version 2Продолжительность : 26 м.Вид битрейта : ПеременныйШирина : 720 пикселейВысота : 576 пикселейСоотношение сторон : 4:3Частота кадров : 25,000 кадров/секСтандарт вещания : PALМетод сжатия : С потерями
АудиоИдентификатор : 0 (0x0)Формат : MPEG AudioПрофиль формата : Version 1Продолжительность : 26 м.Каналы : 2 каналаЧастота : 48,0 КГцМетод сжатия : С потерямиЯзык : Russian
МенюПродолжительность : 26 м.00:00:00.000 : Chapter 100:02:00.000 : Chapter 200:03:59.840 : Chapter 300:05:59.800 : Chapter 400:07:59.600 : Chapter 500:09:59.680 : Chapter 600:12:00.000 : Chapter 700:13:59.720 : Chapter 800:15:59.440 : Chapter 900:17:59.760 : Chapter 1000:19:59.760 : Chapter 1100:21:59.920 : Chapter 1200:23:59.880 : Chapter 1300:26:00.000 : Chapter 1400:26:03.160 : Chapter 15List (Audio) : 0
ОбщееПолное имя : F:\MONAR.RU\Видео\История России и мира\Зимняя война\Диск 1\VIDEO_TS\VTS_01_0.IFOФормат : DVD VideoПрофиль формата : ProgramРазмер файла : 32,0 КбайтПродолжительность : 26 м.Режим общего битрейта : ПеременныйОбщий поток : 168 бит/сек
ВидеоИдентификатор : 224 (0xE0)Формат : MPEG VideoВерсия формата : Version 2Продолжительность : 26 м.Вид битрейта : ПеременныйШирина : 720 пикселейВысота : 576 пикселейСоотношение сторон : 4:3Частота кадров : 25,000 кадров/секСтандарт вещания : PALМетод сжатия : С потерями
АудиоИдентификатор : 0 (0x0)Формат : MPEG AudioПрофиль формата : Version 1Продолжительность : 26 м.Каналы : 2 каналаЧастота : 48,0 КГцМетод сжатия : С потерямиЯзык : Russian
МенюПродолжительность : 26 м.00:00:00.000 : Chapter 100:02:00.000 : Chapter 200:03:59.840 : Chapter 300:05:59.800 : Chapter 400:07:59.600 : Chapter 500:09:59.680 : Chapter 600:12:00.000 : Chapter 700:13:59.720 : Chapter 800:15:59.440 : Chapter 900:17:59.760 : Chapter 1000:19:59.760 : Chapter 1100:21:59.920 : Chapter 1200:23:59.880 : Chapter 1300:26:00.000 : Chapter 1400:26:03.160 : Chapter 15List (Audio) : 0
ОбщееПолное имя : F:\MONAR.RU\Видео\История России и мира\Зимняя война\Диск 1\VIDEO_TS\VTS_01_0.VOBФормат : MPEG-PSРазмер файла : 29,1 МбайтПродолжительность : 30 с.Общий поток : 8114 Кбит/сек
ВидеоИдентификатор : 224 (0xE0)Формат : MPEG VideoВерсия формата : Version 2Профиль формата : Main@MainПараметр BVOP формата : ДаПараметр матрицы формата : По умолчаниюПараметр GOP формата : M=3, N=12Продолжительность : 30 с.Битрейт : 7952 Кбит/секШирина : 720 пикселейВысота : 576 пикселейСоотношение сторон : 4:3Частота кадров : 25,000 кадров/секСтандарт вещания : PALЦветовое пространство : YUVСубдискретизация насыщенности : 4:2:0Битовая глубина : 8 битМетод сжатия : С потерямиБит/(Пиксели*Кадры) : 0.767Размер потока : 28,5 Мбайт (98%)Основные цвета : BT.601 NTSCХарактеристики трансфера : BT.601Коэффициенты матрицы : BT.601
ТекстИдентификатор : 189 (0xBD)-32 (0x20)Формат : RLEФормат/Информация : Run-length encodingРежим смешивания : DVD-VideoЗадержка видео : 88 мс.
Меню
ОбщееПолное имя : F:\MONAR.RU\Видео\История России и мира\Зимняя война\Диск 1\VIDEO_TS\VTS_01_1.VOBФормат : MPEG-PSРазмер файла : 1024 МбайтПродолжительность : 25 м.Режим общего битрейта : ПеременныйОбщий поток : 5698 Кбит/сек
ВидеоИдентификатор : 224 (0xE0)Формат : MPEG VideoВерсия формата : Version 2Профиль формата : Main@MainПараметр BVOP формата : ДаПараметр матрицы формата : ВыборочнаяПараметр GOP формата : VariableFormat_Settings_PictureStructure : FrameПродолжительность : 25 м.Вид битрейта : ПеременныйБитрейт : 5360 Кбит/секМаксимальный битрейт : 7500 Кбит/секШирина : 720 пикселейВысота : 576 пикселейСоотношение сторон : 4:3Частота кадров : 25,000 кадров/секСтандарт вещания : PALЦветовое пространство : YUVСубдискретизация насыщенности : 4:2:0Битовая глубина : 8 битТип развёртки : ЧересстрочнаяПорядок развёртки : Верхнее поле первоеМетод сжатия : С потерямиБит/(Пиксели*Кадры) : 0.517Временной код первого кадра : 01:00:00:00Оригинал временного кода : Group of pictures headerРазмер потока : 963 Мбайт (94%)
АудиоИдентификатор : 192 (0xC0)Формат : MPEG AudioВерсия формата : Version 1Профиль формата : Layer 2Продолжительность : 25 м.Вид битрейта : ПостоянныйБитрейт : 224 Кбит/секКаналы : 2 каналаЧастота : 48,0 КГцМетод сжатия : С потерямиРазмер потока : 40,3 Мбайт (4%)
Меню
ОбщееПолное имя : F:\MONAR.RU\Видео\История России и мира\Зимняя война\Диск 1\VIDEO_TS\VTS_01_2.VOBФормат : MPEG-PSРазмер файла : 24,6 МбайтПродолжительность : 55 с.Режим общего битрейта : ПеременныйОбщий поток : 3707 Кбит/сек
ВидеоИдентификатор : 224 (0xE0)Формат : MPEG VideoВерсия формата : Version 2Профиль формата : Main@MainПараметр BVOP формата : ДаПараметр матрицы формата : ВыборочнаяПараметр GOP формата : M=3, N=15Format_Settings_PictureStructure : FrameПродолжительность : 55 с.Вид битрейта : ПеременныйБитрейт : 3410 Кбит/секМаксимальный битрейт : 7500 Кбит/секШирина : 720 пикселейВысота : 576 пикселейСоотношение сторон : 4:3Частота кадров : 25,000 кадров/секСтандарт вещания : PALЦветовое пространство : YUVСубдискретизация насыщенности : 4:2:0Битовая глубина : 8 битТип развёртки : ЧересстрочнаяПорядок развёртки : Верхнее поле первоеМетод сжатия : С потерямиБит/(Пиксели*Кадры) : 0.329Временной код первого кадра : 01:25:07:18Оригинал временного кода : Group of pictures headerРазмер потока : 22,6 Мбайт (92%)
АудиоИдентификатор : 192 (0xC0)Формат : MPEG AudioВерсия формата : Version 1Профиль формата : Layer 2Продолжительность : 55 с.Вид битрейта : ПостоянныйБитрейт : 224 Кбит/секКаналы : 2 каналаЧастота : 48,0 КГцМетод сжатия : С потерямиЗадержка видео : -312 мс.Размер потока : 1,49 Мбайт (6%)
Меню
ОбщееПолное имя : F:\MONAR.RU\Видео\История России и мира\Зимняя война\Диск 1\VIDEO_TS\VTS_02_0.BUPФормат : DVD VideoПрофиль формата : ProgramРазмер файла : 32,0 КбайтПродолжительность : 25 м.Режим общего битрейта : ПеременныйОбщий поток : 168 бит/сек
ВидеоИдентификатор : 224 (0xE0)Формат : MPEG VideoВерсия формата : Version 2Продолжительность : 25 м.Вид битрейта : ПеременныйШирина : 720 пикселейВысота : 576 пикселейСоотношение сторон : 4:3Частота кадров : 25,000 кадров/секСтандарт вещания : PALМетод сжатия : С потерями
АудиоИдентификатор : 0 (0x0)Формат : MPEG AudioПрофиль формата : Version 1Продолжительность : 25 м.Каналы : 2 каналаЧастота : 48,0 КГцМетод сжатия : С потерямиЯзык : Russian
МенюПродолжительность : 25 м.00:00:00.000 : Chapter 100:01:59.560 : Chapter 200:03:59.960 : Chapter 300:05:59.880 : Chapter 400:07:59.600 : Chapter 500:09:59.560 : Chapter 600:11:59.680 : Chapter 700:13:59.800 : Chapter 800:15:59.760 : Chapter 900:17:59.640 : Chapter 1000:19:59.760 : Chapter 1100:21:59.640 : Chapter 1200:23:59.440 : Chapter 1300:25:56.360 : Chapter 14List (Audio) : 0
ОбщееПолное имя : F:\MONAR.RU\Видео\История России и мира\Зимняя война\Диск 1\VIDEO_TS\VTS_02_0.IFOФормат : DVD VideoПрофиль формата : ProgramРазмер файла : 32,0 КбайтПродолжительность : 25 м.Режим общего битрейта : ПеременныйОбщий поток : 168 бит/сек
ВидеоИдентификатор : 224 (0xE0)Формат : MPEG VideoВерсия формата : Version 2Продолжительность : 25 м.Вид битрейта : ПеременныйШирина : 720 пикселейВысота : 576 пикселейСоотношение сторон : 4:3Частота кадров : 25,000 кадров/секСтандарт вещания : PALМетод сжатия : С потерями
АудиоИдентификатор : 0 (0x0)Формат : MPEG AudioПрофиль формата : Version 1Продолжительность : 25 м.Каналы : 2 каналаЧастота : 48,0 КГцМетод сжатия : С потерямиЯзык : Russian
МенюПродолжительность : 25 м.00:00:00.000 : Chapter 100:01:59.560 : Chapter 200:03:59.960 : Chapter 300:05:59.880 : Chapter 400:07:59.600 : Chapter 500:09:59.560 : Chapter 600:11:59.680 : Chapter 700:13:59.800 : Chapter 800:15:59.760 : Chapter 900:17:59.640 : Chapter 1000:19:59.760 : Chapter 1100:21:59.640 : Chapter 1200:23:59.440 : Chapter 1300:25:56.360 : Chapter 14List (Audio) : 0
ОбщееПолное имя : F:\MONAR.RU\Видео\История России и мира\Зимняя война\Диск 1\VIDEO_TS\VTS_02_0.VOBФормат : MPEG-PSРазмер файла : 10,0 КбайтПродолжительность : 40 мс.Общий поток : 2048 Кбит/сек
ВидеоИдентификатор : 224 (0xE0)Формат : MPEG VideoВерсия формата : Version 2Профиль формата : Main@MainПараметр BVOP формата : НетПараметр матрицы формата : ВыборочнаяПродолжительность : 40 мс.Максимальный битрейт : 9000 Кбит/секШирина : 720 пикселейВысота : 576 пикселейСоотношение сторон : 4:3Частота кадров : 25,000 кадров/секСтандарт вещания : PALЦветовое пространство : YUVСубдискретизация насыщенности : 4:2:0Битовая глубина : 8 битТип развёртки : ПрогрессивнаяПорядок развёртки : Верхнее поле первоеМетод сжатия : С потерямиВременной код первого кадра : 00:00:00:00Оригинал временного кода : Group of pictures headerОсновные цвета : BT.601 NTSCХарактеристики трансфера : BT.601Коэффициенты матрицы : BT.601
Меню
ОбщееПолное имя : F:\MONAR.RU\Видео\История России и мира\Зимняя война\Диск 1\VIDEO_TS\VTS_02_1.VOBФормат : MPEG-PSРазмер файла : 1024 МбайтПродолжительность : 25 м.Режим общего битрейта : ПеременныйОбщий поток : 5625 Кбит/сек
ВидеоИдентификатор : 224 (0xE0)Формат : MPEG VideoВерсия формата : Version 2Профиль формата : Main@MainПараметр BVOP формата : ДаПараметр матрицы формата : ВыборочнаяПараметр GOP формата : M=3, N=15Format_Settings_PictureStructure : FrameПродолжительность : 25 м.Вид битрейта : ПеременныйБитрейт : 5289 Кбит/секМаксимальный битрейт : 7500 Кбит/секШирина : 720 пикселейВысота : 576 пикселейСоотношение сторон : 4:3Частота кадров : 25,000 кадров/секСтандарт вещания : PALЦветовое пространство : YUVСубдискретизация насыщенности : 4:2:0Битовая глубина : 8 битТип развёртки : ЧересстрочнаяПорядок развёртки : Верхнее поле первоеМетод сжатия : С потерямиБит/(Пиксели*Кадры) : 0.510Временной код первого кадра : 01:00:00:00Оригинал временного кода : Group of pictures headerРазмер потока : 963 Мбайт (94%)
АудиоИдентификатор : 192 (0xC0)Формат : MPEG AudioВерсия формата : Version 1Профиль формата : Layer 2Продолжительность : 25 м.Вид битрейта : ПостоянныйБитрейт : 224 Кбит/секКаналы : 2 каналаЧастота : 48,0 КГцМетод сжатия : С потерямиРазмер потока : 40,8 Мбайт (4%)
Меню
ОбщееПолное имя : F:\MONAR.RU\Видео\История России и мира\Зимняя война\Диск 1\VIDEO_TS\VTS_02_2.VOBФормат : MPEG-PSРазмер файла : 20,1 МбайтПродолжительность : 29 с.Режим общего битрейта : ПеременныйОбщий поток : 5748 Кбит/сек
ВидеоИдентификатор : 224 (0xE0)Формат : MPEG VideoВерсия формата : Version 2Профиль формата : Main@MainПараметр BVOP формата : ДаПараметр матрицы формата : ВыборочнаяПараметр GOP формата : VariableFormat_Settings_PictureStructure : FrameПродолжительность : 29 с.Вид битрейта : ПеременныйБитрейт : 5409 Кбит/секМаксимальный битрейт : 7500 Кбит/секШирина : 720 пикселейВысота : 576 пикселейСоотношение сторон : 4:3Частота кадров : 25,000 кадров/секСтандарт вещания : PALЦветовое пространство : YUVСубдискретизация насыщенности : 4:2:0Битовая глубина : 8 битТип развёртки : ЧересстрочнаяПорядок развёртки : Верхнее поле первоеМетод сжатия : С потерямиБит/(Пиксели*Кадры) : 0.522Временной код первого кадра : 01:25:27:09Оригинал временного кода : Group of pictures headerРазмер потока : 18,9 Мбайт (94%)
АудиоИдентификатор : 192 (0xC0)Формат : MPEG AudioВерсия формата : Version 1Профиль формата : Layer 2Продолжительность : 29 с.Вид битрейта : ПостоянныйБитрейт : 224 Кбит/секКаналы : 2 каналаЧастота : 48,0 КГцМетод сжатия : С потерямиЗадержка видео : -288 мс.Размер потока : 801 Кбайт (4%)
Меню
ОбщееПолное имя : F:\MONAR.RU\Видео\История России и мира\Зимняя война\Диск 1\VIDEO_TS\VTS_03_0.BUPФормат : DVD VideoПрофиль формата : ProgramРазмер файла : 32,0 КбайтПродолжительность : 25 м.Режим общего битрейта : ПеременныйОбщий поток : 168 бит/сек
ВидеоИдентификатор : 224 (0xE0)Формат : MPEG VideoВерсия формата : Version 2Продолжительность : 25 м.Вид битрейта : ПеременныйШирина : 720 пикселейВысота : 576 пикселейСоотношение сторон : 4:3Частота кадров : 25,000 кадров/секСтандарт вещания : PALМетод сжатия : С потерями
АудиоИдентификатор : 0 (0x0)Формат : MPEG AudioПрофиль формата : Version 1Продолжительность : 25 м.Каналы : 2 каналаЧастота : 48,0 КГцМетод сжатия : С потерямиЯзык : Russian
МенюПродолжительность : 25 м.00:00:00.000 : Chapter 100:01:59.840 : Chapter 200:03:59.960 : Chapter 300:05:59.960 : Chapter 400:07:59.760 : Chapter 500:09:59.480 : Chapter 600:12:00.000 : Chapter 700:13:59.920 : Chapter 800:15:59.960 : Chapter 900:17:59.760 : Chapter 1000:19:59.680 : Chapter 1100:21:59.880 : Chapter 1200:23:59.880 : Chapter 1300:25:59.360 : Chapter 14List (Audio) : 0
ОбщееПолное имя : F:\MONAR.RU\Видео\История России и мира\Зимняя война\Диск 1\VIDEO_TS\VTS_03_0.IFOФормат : DVD VideoПрофиль формата : ProgramРазмер файла : 32,0 КбайтПродолжительность : 25 м.Режим общего битрейта : ПеременныйОбщий поток : 168 бит/сек
ВидеоИдентификатор : 224 (0xE0)Формат : MPEG VideoВерсия формата : Version 2Продолжительность : 25 м.Вид битрейта : ПеременныйШирина : 720 пикселейВысота : 576 пикселейСоотношение сторон : 4:3Частота кадров : 25,000 кадров/секСтандарт вещания : PALМетод сжатия : С потерями
АудиоИдентификатор : 0 (0x0)Формат : MPEG AudioПрофиль формата : Version 1Продолжительность : 25 м.Каналы : 2 каналаЧастота : 48,0 КГцМетод сжатия : С потерямиЯзык : Russian
МенюПродолжительность : 25 м.00:00:00.000 : Chapter 100:01:59.840 : Chapter 200:03:59.960 : Chapter 300:05:59.960 : Chapter 400:07:59.760 : Chapter 500:09:59.480 : Chapter 600:12:00.000 : Chapter 700:13:59.920 : Chapter 800:15:59.960 : Chapter 900:17:59.760 : Chapter 1000:19:59.680 : Chapter 1100:21:59.880 : Chapter 1200:23:59.880 : Chapter 1300:25:59.360 : Chapter 14List (Audio) : 0
ОбщееПолное имя : F:\MONAR.RU\Видео\История России и мира\Зимняя война\Диск 1\VIDEO_TS\VTS_03_0.VOBФормат : MPEG-PSРазмер файла : 10,0 КбайтПродолжительность : 40 мс.Общий поток : 2048 Кбит/сек
ВидеоИдентификатор : 224 (0xE0)Формат : MPEG VideoВерсия формата : Version 2Профиль формата : Main@MainПараметр BVOP формата : НетПараметр матрицы формата : ВыборочнаяПродолжительность : 40 мс.Максимальный битрейт : 9000 Кбит/секШирина : 720 пикселейВысота : 576 пикселейСоотношение сторон : 4:3Частота кадров : 25,000 кадров/секСтандарт вещания : PALЦветовое пространство : YUVСубдискретизация насыщенности : 4:2:0Битовая глубина : 8 битТип развёртки : ПрогрессивнаяПорядок развёртки : Верхнее поле первоеМетод сжатия : С потерямиВременной код первого кадра : 00:00:00:00Оригинал временного кода : Group of pictures headerОсновные цвета : BT.601 NTSCХарактеристики трансфера : BT.601Коэффициенты матрицы : BT.601
Меню
ОбщееПолное имя : F:\MONAR.RU\Видео\История России и мира\Зимняя война\Диск 1\VIDEO_TS\VTS_03_1.VOBФормат : MPEG-PSРазмер файла : 1024 МбайтПродолжительность : 25 м.Режим общего битрейта : ПеременныйОбщий поток : 5621 Кбит/сек
ВидеоИдентификатор : 224 (0xE0)Формат : MPEG VideoВерсия формата : Version 2Профиль формата : Main@MainПараметр BVOP формата : ДаПараметр матрицы формата : ВыборочнаяПараметр GOP формата : VariableFormat_Settings_PictureStructure : FrameПродолжительность : 25 м.Вид битрейта : ПеременныйБитрейт : 5285 Кбит/секМаксимальный битрейт : 7500 Кбит/секШирина : 720 пикселейВысота : 576 пикселейСоотношение сторон : 4:3Частота кадров : 25,000 кадров/секСтандарт вещания : PALЦветовое пространство : YUVСубдискретизация насыщенности : 4:2:0Битовая глубина : 8 битТип развёртки : ЧересстрочнаяПорядок развёртки : Верхнее поле первоеМетод сжатия : С потерямиБит/(Пиксели*Кадры) : 0.510Временной код первого кадра : 01:00:00:00Оригинал временного кода : Group of pictures headerРазмер потока : 963 Мбайт (94%)
АудиоИдентификатор : 192 (0xC0)Формат : MPEG AudioВерсия формата : Version 1Профиль формата : Layer 2Продолжительность : 25 м.Вид битрейта : ПостоянныйБитрейт : 224 Кбит/секКаналы : 2 каналаЧастота : 48,0 КГцМетод сжатия : С потерямиРазмер потока : 40,8 Мбайт (4%)
Меню
ОбщееПолное имя : F:\MONAR.RU\Видео\История России и мира\Зимняя война\Диск 1\VIDEO_TS\VTS_03_2.VOBФормат : MPEG-PSРазмер файла : 22,1 МбайтПродолжительность : 31 с.Режим общего битрейта : ПеременныйОбщий поток : 5904 Кбит/сек
ВидеоИдентификатор : 224 (0xE0)Формат : MPEG VideoВерсия формата : Version 2Профиль формата : Main@MainПараметр BVOP формата : ДаПараметр матрицы формата : ВыборочнаяПараметр GOP формата : VariableFormat_Settings_PictureStructure : FrameПродолжительность : 31 с.Вид битрейта : ПеременныйБитрейт : 5563 Кбит/секМаксимальный битрейт : 7500 Кбит/секШирина : 720 пикселейВысота : 576 пикселейСоотношение сторон : 4:3Частота кадров : 25,000 кадров/секСтандарт вещания : PALЦветовое пространство : YUVСубдискретизация насыщенности : 4:2:0Битовая глубина : 8 битТип развёртки : ЧересстрочнаяПорядок развёртки : Верхнее поле первоеМетод сжатия : С потерямиБит/(Пиксели*Кадры) : 0.537Временной код первого кадра : 01:25:28:02Оригинал временного кода : Group of pictures headerРазмер потока : 20,8 Мбайт (94%)
АудиоИдентификатор : 192 (0xC0)Формат : MPEG AudioВерсия формата : Version 1Профиль формата : Layer 2Продолжительность : 31 с.Вид битрейта : ПостоянныйБитрейт : 224 Кбит/секКаналы : 2 каналаЧастота : 48,0 КГцМетод сжатия : С потерямиЗадержка видео : -152 мс.Размер потока : 858 Кбайт (4%)
Меню
ОбщееПолное имя : F:\MONAR.RU\Видео\История России и мира\Зимняя война\Диск 1\VIDEO_TS\VTS_04_0.BUPФормат : DVD VideoПрофиль формата : ProgramРазмер файла : 32,0 КбайтПродолжительность : 26 м.Режим общего битрейта : ПеременныйОбщий поток : 168 бит/сек
ВидеоИдентификатор : 224 (0xE0)Формат : MPEG VideoВерсия формата : Version 2Продолжительность : 26 м.Вид битрейта : ПеременныйШирина : 720 пикселейВысота : 576 пикселейСоотношение сторон : 4:3Частота кадров : 25,000 кадров/секСтандарт вещания : PALМетод сжатия : С потерями
АудиоИдентификатор : 0 (0x0)Формат : MPEG AudioПрофиль формата : Version 1Продолжительность : 26 м.Каналы : 2 каналаЧастота : 48,0 КГцМетод сжатия : С потерямиЯзык : Russian
МенюПродолжительность : 26 м.00:00:00.000 : Chapter 100:02:00.000 : Chapter 200:03:59.800 : Chapter 300:05:59.440 : Chapter 400:07:59.800 : Chapter 500:09:59.440 : Chapter 600:11:59.720 : Chapter 700:13:59.600 : Chapter 800:15:59.640 : Chapter 900:17:59.560 : Chapter 1000:19:59.560 : Chapter 1100:21:59.840 : Chapter 1200:23:59.480 : Chapter 1300:26:00.000 : Chapter 14List (Audio) : 0
ОбщееПолное имя : F:\MONAR.RU\Видео\История России и мира\Зимняя война\Диск 1\VIDEO_TS\VTS_04_0.IFOФормат : DVD VideoПрофиль формата : ProgramРазмер файла : 32,0 КбайтПродолжительность : 26 м.Режим общего битрейта : ПеременныйОбщий поток : 168 бит/сек
ВидеоИдентификатор : 224 (0xE0)Формат : MPEG VideoВерсия формата : Version 2Продолжительность : 26 м.Вид битрейта : ПеременныйШирина : 720 пикселейВысота : 576 пикселейСоотношение сторон : 4:3Частота кадров : 25,000 кадров/секСтандарт вещания : PALМетод сжатия : С потерями
АудиоИдентификатор : 0 (0x0)Формат : MPEG AudioПрофиль формата : Version 1Продолжительность : 26 м.Каналы : 2 каналаЧастота : 48,0 КГцМетод сжатия : С потерямиЯзык : Russian
МенюПродолжительность : 26 м.00:00:00.000 : Chapter 100:02:00.000 : Chapter 200:03:59.800 : Chapter 300:05:59.440 : Chapter 400:07:59.800 : Chapter 500:09:59.440 : Chapter 600:11:59.720 : Chapter 700:13:59.600 : Chapter 800:15:59.640 : Chapter 900:17:59.560 : Chapter 1000:19:59.560 : Chapter 1100:21:59.840 : Chapter 1200:23:59.480 : Chapter 1300:26:00.000 : Chapter 14List (Audio) : 0
ОбщееПолное имя : F:\MONAR.RU\Видео\История России и мира\Зимняя война\Диск 1\VIDEO_TS\VTS_04_0.VOBФормат : MPEG-PSРазмер файла : 10,0 КбайтПродолжительность : 40 мс.Общий поток : 2048 Кбит/сек
ВидеоИдентификатор : 224 (0xE0)Формат : MPEG VideoВерсия формата : Version 2Профиль формата : Main@MainПараметр BVOP формата : НетПараметр матрицы формата : ВыборочнаяПродолжительность : 40 мс.Максимальный битрейт : 9000 Кбит/секШирина : 720 пикселейВысота : 576 пикселейСоотношение сторон : 4:3Частота кадров : 25,000 кадров/секСтандарт вещания : PALЦветовое пространство : YUVСубдискретизация насыщенности : 4:2:0Битовая глубина : 8 битТип развёртки : ПрогрессивнаяПорядок развёртки : Верхнее поле первоеМетод сжатия : С потерямиВременной код первого кадра : 00:00:00:00Оригинал временного кода : Group of pictures headerОсновные цвета : BT.601 NTSCХарактеристики трансфера : BT.601Коэффициенты матрицы : BT.601
Меню
ОбщееПолное имя : F:\MONAR.RU\Видео\История России и мира\Зимняя война\Диск 1\VIDEO_TS\VTS_04_1.VOBФормат : MPEG-PSРазмер файла : 1024 МбайтПродолжительность : 25 м.Режим общего битрейта : ПеременныйОбщий поток : 5618 Кбит/сек
ВидеоИдентификатор : 224 (0xE0)Формат : MPEG VideoВерсия формата : Version 2Профиль формата : Main@MainПараметр BVOP формата : ДаПараметр матрицы формата : ВыборочнаяПараметр GOP формата : VariableFormat_Settings_PictureStructure : FrameПродолжительность : 25 м.Вид битрейта : ПеременныйБитрейт : 5282 Кбит/секМаксимальный битрейт : 7500 Кбит/секШирина : 720 пикселейВысота : 576 пикселейСоотношение сторон : 4:3Частота кадров : 25,000 кадров/секСтандарт вещания : PALЦветовое пространство : YUVСубдискретизация насыщенности : 4:2:0Битовая глубина : 8 битТип развёртки : ЧересстрочнаяПорядок развёртки : Верхнее поле первоеМетод сжатия : С потерямиБит/(Пиксели*Кадры) : 0.509Временной код первого кадра : 01:00:00:00Оригинал временного кода : Group of pictures headerРазмер потока : 963 Мбайт (94%)
АудиоИдентификатор : 192 (0xC0)Формат : MPEG AudioВерсия формата : Version 1Профиль формата : Layer 2Продолжительность : 25 м.Вид битрейта : ПостоянныйБитрейт : 224 Кбит/секКаналы : 2 каналаЧастота : 48,0 КГцМетод сжатия : С потерямиРазмер потока : 40,8 Мбайт (4%)
Меню
ОбщееПолное имя : F:\MONAR.RU\Видео\История России и мира\Зимняя война\Диск 1\VIDEO_TS\VTS_04_2.VOBФормат : MPEG-PSРазмер файла : 22,6 МбайтПродолжительность : 31 с.Режим общего битрейта : ПеременныйОбщий поток : 6087 Кбит/сек
ВидеоИдентификатор : 224 (0xE0)Формат : MPEG VideoВерсия формата : Version 2Профиль формата : Main@MainПараметр BVOP формата : ДаПараметр матрицы формата : ВыборочнаяПараметр GOP формата : VariableFormat_Settings_PictureStructure : FrameПродолжительность : 31 с.Вид битрейта : ПеременныйБитрейт : 5742 Кбит/секМаксимальный битрейт : 7500 Кбит/секШирина : 720 пикселейВысота : 576 пикселейСоотношение сторон : 4:3Частота кадров : 25,000 кадров/секСтандарт вещания : PALЦветовое пространство : YUVСубдискретизация насыщенности : 4:2:0Битовая глубина : 8 битТип развёртки : ЧересстрочнаяПорядок развёртки : Верхнее поле первоеМетод сжатия : С потерямиБит/(Пиксели*Кадры) : 0.554Временной код первого кадра : 01:25:29:10Оригинал временного кода : Group of pictures headerРазмер потока : 21,3 Мбайт (94%)
АудиоИдентификатор : 192 (0xC0)Формат : MPEG AudioВерсия формата : Version 1Профиль формата : Layer 2Продолжительность : 31 с.Вид битрейта : ПостоянныйБитрейт : 224 Кбит/секКаналы : 2 каналаЧастота : 48,0 КГцМетод сжатия : С потерямиЗадержка видео : -608 мс.Размер потока : 851 Кбайт (4%)
Меню

Скриншот меню

Скриншоты

1. Накопление агрессии

2. Накануне

3. Линия Маннергейма

4. Зимний ужас

Диск 2.
5. Начнём сначала
6 Преодоление хаоса
7. Между молотом и наковальней
8. Единственный выход
Доп. информация: При участии историков Кирилла Александрова и Андрея Терещука. Монтаж - Сергей Правдюк. Оператор - Антон Правдюк.
Бонусы: Отсутствуют.
Меню: Имеется, русский, динамичное, неозвученное.
Сэмпл: https://www.sendspace.com/file/bludhy
Главы (разбивка по трекам): есть
Качество: DVD5
Формат: DVD Video
Видео кодек: MPEG2
Аудио кодек: AC3
Видео: PAL 720x576 (4:3), VBR ~ 5195-5308 Кбит/с, 25 кадров/сек
Аудио: Русский, 224 Кбит/сек, 48,0 КГц, 2 канала, MP2

DVD Info

Title: Диск 2Size: 4.05 Gb ( 4 251 088 KBytes ) - DVD-5Enabled regions: 1, 2, 3, 4, 5, 6, 7, 8
VTS_01 : Play Length: 00:26:00 Video: PAL 4:3 (720x576) VBR Audio: Russian (MPEG1, 2 ch)
VTS_02 : Play Length: 00:25:48 Video: PAL 4:3 (720x576) VBR Audio: Russian (MPEG1, 2 ch)
VTS_03 : Play Length: 00:26:00 Video: PAL 4:3 (720x576) VBR Audio: Russian (MPEG1, 2 ch)
VTS_04 : Play Length: 00:26:01 Video: PAL 4:3 (720x576) VBR Audio: Russian (MPEG1, 2 ch)
Menu Video: PAL 4:3 (720x576) VBRMenu Subtitles: Not specifiedMenu English Language Unit : Root Menu

MediaInfo

ОбщееПолное имя                               : F:\MONAR.RU\Видео\История России и мира\Зимняя война\Диск 2\VIDEO_TS\VIDEO_TS.BUPФормат                                   : DVD VideoПрофиль формата                          : MenuРазмер файла                             : 16,0 КбайтРежим общего битрейта                    : Переменный
ВидеоИдентификатор : 224 (0xE0)Формат : MPEG VideoВерсия формата : Version 2Вид битрейта : ПеременныйШирина : 720 пикселейВысота : 576 пикселейСоотношение сторон : 4:3Частота кадров : 25,000 кадров/секСтандарт вещания : PALМетод сжатия : С потерями
ТекстФормат : RLEФормат/Информация : Run-length encodingБитовая глубина : 2 бит
ОбщееПолное имя : F:\MONAR.RU\Видео\История России и мира\Зимняя война\Диск 2\VIDEO_TS\VIDEO_TS.IFOФормат : DVD VideoПрофиль формата : MenuРазмер файла : 16,0 КбайтРежим общего битрейта : Переменный
ВидеоИдентификатор : 224 (0xE0)Формат : MPEG VideoВерсия формата : Version 2Вид битрейта : ПеременныйШирина : 720 пикселейВысота : 576 пикселейСоотношение сторон : 4:3Частота кадров : 25,000 кадров/секСтандарт вещания : PALМетод сжатия : С потерями
ТекстФормат : RLEФормат/Информация : Run-length encodingБитовая глубина : 2 бит
ОбщееПолное имя : F:\MONAR.RU\Видео\История России и мира\Зимняя война\Диск 2\VIDEO_TS\VIDEO_TS.VOBФормат : MPEG-PSРазмер файла : 10,0 КбайтПродолжительность : 40 мс.Общий поток : 2048 Кбит/сек
ВидеоИдентификатор : 224 (0xE0)Формат : MPEG VideoВерсия формата : Version 2Профиль формата : Main@MainПараметр BVOP формата : НетПараметр матрицы формата : ВыборочнаяПродолжительность : 40 мс.Максимальный битрейт : 9000 Кбит/секШирина : 720 пикселейВысота : 576 пикселейСоотношение сторон : 4:3Частота кадров : 25,000 кадров/секСтандарт вещания : PALЦветовое пространство : YUVСубдискретизация насыщенности : 4:2:0Битовая глубина : 8 битТип развёртки : ПрогрессивнаяПорядок развёртки : Верхнее поле первоеМетод сжатия : С потерямиВременной код первого кадра : 00:00:00:00Оригинал временного кода : Group of pictures headerОсновные цвета : BT.601 NTSCХарактеристики трансфера : BT.601Коэффициенты матрицы : BT.601
Меню
ОбщееПолное имя : F:\MONAR.RU\Видео\История России и мира\Зимняя война\Диск 2\VIDEO_TS\VTS_01_0.BUPФормат : DVD VideoПрофиль формата : ProgramРазмер файла : 32,0 КбайтПродолжительность : 26 м.Режим общего битрейта : ПеременныйОбщий поток : 168 бит/сек
ВидеоИдентификатор : 224 (0xE0)Формат : MPEG VideoВерсия формата : Version 2Продолжительность : 26 м.Вид битрейта : ПеременныйШирина : 720 пикселейВысота : 576 пикселейСоотношение сторон : 4:3Частота кадров : 25,000 кадров/секСтандарт вещания : PALМетод сжатия : С потерями
АудиоИдентификатор : 0 (0x0)Формат : MPEG AudioПрофиль формата : Version 1Продолжительность : 26 м.Каналы : 2 каналаЧастота : 48,0 КГцМетод сжатия : С потерямиЯзык : Russian
МенюПродолжительность : 26 м.00:00:00.000 : Chapter 100:01:59.760 : Chapter 200:03:59.480 : Chapter 300:05:59.560 : Chapter 400:07:59.800 : Chapter 500:09:59.600 : Chapter 600:11:59.840 : Chapter 700:13:59.520 : Chapter 800:15:59.640 : Chapter 900:17:59.440 : Chapter 1000:19:59.880 : Chapter 1100:21:59.840 : Chapter 1200:24:00.000 : Chapter 1300:25:59.760 : Chapter 14List (Audio) : 0
ОбщееПолное имя : F:\MONAR.RU\Видео\История России и мира\Зимняя война\Диск 2\VIDEO_TS\VTS_01_0.IFOФормат : DVD VideoПрофиль формата : ProgramРазмер файла : 32,0 КбайтПродолжительность : 26 м.Режим общего битрейта : ПеременныйОбщий поток : 168 бит/сек
ВидеоИдентификатор : 224 (0xE0)Формат : MPEG VideoВерсия формата : Version 2Продолжительность : 26 м.Вид битрейта : ПеременныйШирина : 720 пикселейВысота : 576 пикселейСоотношение сторон : 4:3Частота кадров : 25,000 кадров/секСтандарт вещания : PALМетод сжатия : С потерями
АудиоИдентификатор : 0 (0x0)Формат : MPEG AudioПрофиль формата : Version 1Продолжительность : 26 м.Каналы : 2 каналаЧастота : 48,0 КГцМетод сжатия : С потерямиЯзык : Russian
МенюПродолжительность : 26 м.00:00:00.000 : Chapter 100:01:59.760 : Chapter 200:03:59.480 : Chapter 300:05:59.560 : Chapter 400:07:59.800 : Chapter 500:09:59.600 : Chapter 600:11:59.840 : Chapter 700:13:59.520 : Chapter 800:15:59.640 : Chapter 900:17:59.440 : Chapter 1000:19:59.880 : Chapter 1100:21:59.840 : Chapter 1200:24:00.000 : Chapter 1300:25:59.760 : Chapter 14List (Audio) : 0
ОбщееПолное имя : F:\MONAR.RU\Видео\История России и мира\Зимняя война\Диск 2\VIDEO_TS\VTS_01_0.VOBФормат : MPEG-PSРазмер файла : 29,1 МбайтПродолжительность : 30 с.Общий поток : 8115 Кбит/сек
ВидеоИдентификатор : 224 (0xE0)Формат : MPEG VideoВерсия формата : Version 2Профиль формата : Main@MainПараметр BVOP формата : ДаПараметр матрицы формата : По умолчаниюПараметр GOP формата : M=3, N=12Продолжительность : 30 с.Битрейт : 7954 Кбит/секШирина : 720 пикселейВысота : 576 пикселейСоотношение сторон : 4:3Частота кадров : 25,000 кадров/секСтандарт вещания : PALЦветовое пространство : YUVСубдискретизация насыщенности : 4:2:0Битовая глубина : 8 битМетод сжатия : С потерямиБит/(Пиксели*Кадры) : 0.767Размер потока : 28,5 Мбайт (98%)Основные цвета : BT.601 NTSCХарактеристики трансфера : BT.601Коэффициенты матрицы : BT.601
ТекстИдентификатор : 189 (0xBD)-32 (0x20)Формат : RLEФормат/Информация : Run-length encodingРежим смешивания : DVD-VideoЗадержка видео : 86 мс.
Меню
ОбщееПолное имя : F:\MONAR.RU\Видео\История России и мира\Зимняя война\Диск 2\VIDEO_TS\VTS_01_1.VOBФормат : MPEG-PSРазмер файла : 1024 МбайтПродолжительность : 25 м.Режим общего битрейта : ПеременныйОбщий поток : 5535 Кбит/сек
ВидеоИдентификатор : 224 (0xE0)Формат : MPEG VideoВерсия формата : Version 2Профиль формата : Main@MainПараметр BVOP формата : ДаПараметр матрицы формата : ВыборочнаяПараметр GOP формата : M=3, N=15Format_Settings_PictureStructure : FrameПродолжительность : 25 м.Вид битрейта : ПеременныйБитрейт : 5201 Кбит/секМаксимальный битрейт : 7500 Кбит/секШирина : 720 пикселейВысота : 576 пикселейСоотношение сторон : 4:3Частота кадров : 25,000 кадров/секСтандарт вещания : PALЦветовое пространство : YUVСубдискретизация насыщенности : 4:2:0Битовая глубина : 8 битТип развёртки : ЧересстрочнаяПорядок развёртки : Верхнее поле первоеМетод сжатия : С потерямиБит/(Пиксели*Кадры) : 0.502Временной код первого кадра : 01:00:00:00Оригинал временного кода : Group of pictures headerРазмер потока : 962 Мбайт (94%)
АудиоИдентификатор : 192 (0xC0)Формат : MPEG AudioВерсия формата : Version 1Профиль формата : Layer 2Продолжительность : 25 м.Вид битрейта : ПостоянныйБитрейт : 224 Кбит/секКаналы : 2 каналаЧастота : 48,0 КГцМетод сжатия : С потерямиРазмер потока : 41,4 Мбайт (4%)
Меню
ОбщееПолное имя : F:\MONAR.RU\Видео\История России и мира\Зимняя война\Диск 2\VIDEO_TS\VTS_01_2.VOBФормат : MPEG-PSРазмер файла : 3,58 МбайтПродолжительность : 7 с. 992 мс.Режим общего битрейта : ПеременныйОбщий поток : 3762 Кбит/сек
ВидеоИдентификатор : 224 (0xE0)Формат : MPEG VideoВерсия формата : Version 2Профиль формата : Main@MainПараметр BVOP формата : ДаПараметр матрицы формата : ВыборочнаяПараметр GOP формата : M=3, N=15Format_Settings_PictureStructure : FrameПродолжительность : 7 с. 640 мс.Вид битрейта : ПеременныйБитрейт : 3463 Кбит/секМаксимальный битрейт : 7500 Кбит/секШирина : 720 пикселейВысота : 576 пикселейСоотношение сторон : 4:3Частота кадров : 25,000 кадров/секСтандарт вещания : PALЦветовое пространство : YUVСубдискретизация насыщенности : 4:2:0Битовая глубина : 8 битТип развёртки : ЧересстрочнаяПорядок развёртки : Верхнее поле первоеМетод сжатия : С потерямиБит/(Пиксели*Кадры) : 0.334Временной код первого кадра : 01:25:52:04Оригинал временного кода : Group of pictures headerРазмер потока : 3,15 Мбайт (88%)
АудиоИдентификатор : 192 (0xC0)Формат : MPEG AudioВерсия формата : Version 1Профиль формата : Layer 2Продолжительность : 7 с. 992 мс.Вид битрейта : ПостоянныйБитрейт : 224 Кбит/секКаналы : 2 каналаЧастота : 48,0 КГцМетод сжатия : С потерямиЗадержка видео : -472 мс.Размер потока : 219 Кбайт (6%)
Меню
ОбщееПолное имя : F:\MONAR.RU\Видео\История России и мира\Зимняя война\Диск 2\VIDEO_TS\VTS_02_0.BUPФормат : DVD VideoПрофиль формата : ProgramРазмер файла : 32,0 КбайтПродолжительность : 25 м.Режим общего битрейта : ПеременныйОбщий поток : 169 бит/сек
ВидеоИдентификатор : 224 (0xE0)Формат : MPEG VideoВерсия формата : Version 2Продолжительность : 25 м.Вид битрейта : ПеременныйШирина : 720 пикселейВысота : 576 пикселейСоотношение сторон : 4:3Частота кадров : 25,000 кадров/секСтандарт вещания : PALМетод сжатия : С потерями
АудиоИдентификатор : 0 (0x0)Формат : MPEG AudioПрофиль формата : Version 1Продолжительность : 25 м.Каналы : 2 каналаЧастота : 48,0 КГцМетод сжатия : С потерямиЯзык : Russian
МенюПродолжительность : 25 м.00:00:00.000 : Chapter 100:01:59.640 : Chapter 200:03:59.840 : Chapter 300:05:59.840 : Chapter 400:07:59.480 : Chapter 500:09:59.680 : Chapter 600:12:00.000 : Chapter 700:13:59.840 : Chapter 800:15:59.880 : Chapter 900:17:59.760 : Chapter 1000:19:59.440 : Chapter 1100:21:59.960 : Chapter 1200:23:59.640 : Chapter 1300:25:48.000 : Chapter 14List (Audio) : 0
ОбщееПолное имя : F:\MONAR.RU\Видео\История России и мира\Зимняя война\Диск 2\VIDEO_TS\VTS_02_0.IFOФормат : DVD VideoПрофиль формата : ProgramРазмер файла : 32,0 КбайтПродолжительность : 25 м.Режим общего битрейта : ПеременныйОбщий поток : 169 бит/сек
ВидеоИдентификатор : 224 (0xE0)Формат : MPEG VideoВерсия формата : Version 2Продолжительность : 25 м.Вид битрейта : ПеременныйШирина : 720 пикселейВысота : 576 пикселейСоотношение сторон : 4:3Частота кадров : 25,000 кадров/секСтандарт вещания : PALМетод сжатия : С потерями
АудиоИдентификатор : 0 (0x0)Формат : MPEG AudioПрофиль формата : Version 1Продолжительность : 25 м.Каналы : 2 каналаЧастота : 48,0 КГцМетод сжатия : С потерямиЯзык : Russian
МенюПродолжительность : 25 м.00:00:00.000 : Chapter 100:01:59.640 : Chapter 200:03:59.840 : Chapter 300:05:59.840 : Chapter 400:07:59.480 : Chapter 500:09:59.680 : Chapter 600:12:00.000 : Chapter 700:13:59.840 : Chapter 800:15:59.880 : Chapter 900:17:59.760 : Chapter 1000:19:59.440 : Chapter 1100:21:59.960 : Chapter 1200:23:59.640 : Chapter 1300:25:48.000 : Chapter 14List (Audio) : 0
ОбщееПолное имя : F:\MONAR.RU\Видео\История России и мира\Зимняя война\Диск 2\VIDEO_TS\VTS_02_0.VOBФормат : MPEG-PSРазмер файла : 10,0 КбайтПродолжительность : 40 мс.Общий поток : 2048 Кбит/сек
ВидеоИдентификатор : 224 (0xE0)Формат : MPEG VideoВерсия формата : Version 2Профиль формата : Main@MainПараметр BVOP формата : НетПараметр матрицы формата : ВыборочнаяПродолжительность : 40 мс.Максимальный битрейт : 9000 Кбит/секШирина : 720 пикселейВысота : 576 пикселейСоотношение сторон : 4:3Частота кадров : 25,000 кадров/секСтандарт вещания : PALЦветовое пространство : YUVСубдискретизация насыщенности : 4:2:0Битовая глубина : 8 битТип развёртки : ПрогрессивнаяПорядок развёртки : Верхнее поле первоеМетод сжатия : С потерямиВременной код первого кадра : 00:00:00:00Оригинал временного кода : Group of pictures headerОсновные цвета : BT.601 NTSCХарактеристики трансфера : BT.601Коэффициенты матрицы : BT.601
Меню
ОбщееПолное имя : F:\MONAR.RU\Видео\История России и мира\Зимняя война\Диск 2\VIDEO_TS\VTS_02_1.VOBФормат : MPEG-PSРазмер файла : 1024 МбайтПродолжительность : 25 м.Режим общего битрейта : ПеременныйОбщий поток : 5644 Кбит/сек
ВидеоИдентификатор : 224 (0xE0)Формат : MPEG VideoВерсия формата : Version 2Профиль формата : Main@MainПараметр BVOP формата : ДаПараметр матрицы формата : ВыборочнаяПараметр GOP формата : VariableFormat_Settings_PictureStructure : FrameПродолжительность : 25 м.Вид битрейта : ПеременныйБитрейт : 5308 Кбит/секМаксимальный битрейт : 7500 Кбит/секШирина : 720 пикселейВысота : 576 пикселейСоотношение сторон : 4:3Частота кадров : 25,000 кадров/секСтандарт вещания : PALЦветовое пространство : YUVСубдискретизация насыщенности : 4:2:0Битовая глубина : 8 битТип развёртки : ЧересстрочнаяПорядок развёртки : Верхнее поле первоеМетод сжатия : С потерямиБит/(Пиксели*Кадры) : 0.512Временной код первого кадра : 01:00:00:00Оригинал временного кода : Group of pictures headerРазмер потока : 963 Мбайт (94%)
АудиоИдентификатор : 192 (0xC0)Формат : MPEG AudioВерсия формата : Version 1Профиль формата : Layer 2Продолжительность : 25 м.Вид битрейта : ПостоянныйБитрейт : 224 Кбит/секКаналы : 2 каналаЧастота : 48,0 КГцМетод сжатия : С потерямиРазмер потока : 40,6 Мбайт (4%)
Меню
ОбщееПолное имя : F:\MONAR.RU\Видео\История России и мира\Зимняя война\Диск 2\VIDEO_TS\VTS_02_2.VOBФормат : MPEG-PSРазмер файла : 14,5 МбайтПродолжительность : 26 с.Режим общего битрейта : ПеременныйОбщий поток : 4618 Кбит/сек
ВидеоИдентификатор : 224 (0xE0)Формат : MPEG VideoВерсия формата : Version 2Профиль формата : Main@MainПараметр BVOP формата : ДаПараметр матрицы формата : ВыборочнаяПараметр GOP формата : VariableFormat_Settings_PictureStructure : FrameПродолжительность : 26 с.Вид битрейта : ПеременныйБитрейт : 4302 Кбит/секМаксимальный битрейт : 7500 Кбит/секШирина : 720 пикселейВысота : 576 пикселейСоотношение сторон : 4:3Частота кадров : 25,000 кадров/секСтандарт вещания : PALЦветовое пространство : YUVСубдискретизация насыщенности : 4:2:0Битовая глубина : 8 битТип развёртки : ЧересстрочнаяПорядок развёртки : Верхнее поле первоеМетод сжатия : С потерямиБит/(Пиксели*Кадры) : 0.415Временной код первого кадра : 01:25:22:04Оригинал временного кода : Group of pictures headerРазмер потока : 13,5 Мбайт (93%)
АудиоИдентификатор : 192 (0xC0)Формат : MPEG AudioВерсия формата : Version 1Профиль формата : Layer 2Продолжительность : 26 с.Вид битрейта : ПостоянныйБитрейт : 224 Кбит/секКаналы : 2 каналаЧастота : 48,0 КГцМетод сжатия : С потерямиЗадержка видео : -592 мс.Размер потока : 721 Кбайт (5%)
Меню
ОбщееПолное имя : F:\MONAR.RU\Видео\История России и мира\Зимняя война\Диск 2\VIDEO_TS\VTS_03_0.BUPФормат : DVD VideoПрофиль формата : ProgramРазмер файла : 32,0 КбайтПродолжительность : 26 м.Режим общего битрейта : ПеременныйОбщий поток : 168 бит/сек
ВидеоИдентификатор : 224 (0xE0)Формат : MPEG VideoВерсия формата : Version 2Продолжительность : 26 м.Вид битрейта : ПеременныйШирина : 720 пикселейВысота : 576 пикселейСоотношение сторон : 4:3Частота кадров : 25,000 кадров/секСтандарт вещания : PALМетод сжатия : С потерями
АудиоИдентификатор : 0 (0x0)Формат : MPEG AudioПрофиль формата : Version 1Продолжительность : 26 м.Каналы : 2 каналаЧастота : 48,0 КГцМетод сжатия : С потерямиЯзык : Russian
МенюПродолжительность : 26 м.00:00:00.000 : Chapter 100:01:59.760 : Chapter 200:03:59.720 : Chapter 300:05:59.720 : Chapter 400:07:59.840 : Chapter 500:09:59.920 : Chapter 600:12:00.000 : Chapter 700:13:59.680 : Chapter 800:15:59.800 : Chapter 900:17:59.880 : Chapter 1000:19:59.880 : Chapter 1100:21:59.720 : Chapter 1200:23:59.480 : Chapter 1300:25:59.720 : Chapter 14List (Audio) : 0
ОбщееПолное имя : F:\MONAR.RU\Видео\История России и мира\Зимняя война\Диск 2\VIDEO_TS\VTS_03_0.IFOФормат : DVD VideoПрофиль формата : ProgramРазмер файла : 32,0 КбайтПродолжительность : 26 м.Режим общего битрейта : ПеременныйОбщий поток : 168 бит/сек
ВидеоИдентификатор : 224 (0xE0)Формат : MPEG VideoВерсия формата : Version 2Продолжительность : 26 м.Вид битрейта : ПеременныйШирина : 720 пикселейВысота : 576 пикселейСоотношение сторон : 4:3Частота кадров : 25,000 кадров/секСтандарт вещания : PALМетод сжатия : С потерями
АудиоИдентификатор : 0 (0x0)Формат : MPEG AudioПрофиль формата : Version 1Продолжительность : 26 м.Каналы : 2 каналаЧастота : 48,0 КГцМетод сжатия : С потерямиЯзык : Russian
МенюПродолжительность : 26 м.00:00:00.000 : Chapter 100:01:59.760 : Chapter 200:03:59.720 : Chapter 300:05:59.720 : Chapter 400:07:59.840 : Chapter 500:09:59.920 : Chapter 600:12:00.000 : Chapter 700:13:59.680 : Chapter 800:15:59.800 : Chapter 900:17:59.880 : Chapter 1000:19:59.880 : Chapter 1100:21:59.720 : Chapter 1200:23:59.480 : Chapter 1300:25:59.720 : Chapter 14List (Audio) : 0
ОбщееПолное имя : F:\MONAR.RU\Видео\История России и мира\Зимняя война\Диск 2\VIDEO_TS\VTS_03_0.VOBФормат : MPEG-PSРазмер файла : 10,0 КбайтПродолжительность : 40 мс.Общий поток : 2048 Кбит/сек
ВидеоИдентификатор : 224 (0xE0)Формат : MPEG VideoВерсия формата : Version 2Профиль формата : Main@MainПараметр BVOP формата : НетПараметр матрицы формата : ВыборочнаяПродолжительность : 40 мс.Максимальный битрейт : 9000 Кбит/секШирина : 720 пикселейВысота : 576 пикселейСоотношение сторон : 4:3Частота кадров : 25,000 кадров/секСтандарт вещания : PALЦветовое пространство : YUVСубдискретизация насыщенности : 4:2:0Битовая глубина : 8 битТип развёртки : ПрогрессивнаяПорядок развёртки : Верхнее поле первоеМетод сжатия : С потерямиВременной код первого кадра : 00:00:00:00Оригинал временного кода : Group of pictures headerОсновные цвета : BT.601 NTSCХарактеристики трансфера : BT.601Коэффициенты матрицы : BT.601
Меню
ОбщееПолное имя : F:\MONAR.RU\Видео\История России и мира\Зимняя война\Диск 2\VIDEO_TS\VTS_03_1.VOBФормат : MPEG-PSРазмер файла : 1024 МбайтПродолжительность : 25 м.Режим общего битрейта : ПеременныйОбщий поток : 5530 Кбит/сек
ВидеоИдентификатор : 224 (0xE0)Формат : MPEG VideoВерсия формата : Version 2Профиль формата : Main@MainПараметр BVOP формата : ДаПараметр матрицы формата : ВыборочнаяПараметр GOP формата : M=3, N=15Format_Settings_PictureStructure : FrameПродолжительность : 25 м.Вид битрейта : ПеременныйБитрейт : 5196 Кбит/секМаксимальный битрейт : 7500 Кбит/секШирина : 720 пикселейВысота : 576 пикселейСоотношение сторон : 4:3Частота кадров : 25,000 кадров/секСтандарт вещания : PALЦветовое пространство : YUVСубдискретизация насыщенности : 4:2:0Битовая глубина : 8 битТип развёртки : ЧересстрочнаяПорядок развёртки : Верхнее поле первоеМетод сжатия : С потерямиБит/(Пиксели*Кадры) : 0.501Временной код первого кадра : 01:00:00:00Оригинал временного кода : Group of pictures headerРазмер потока : 962 Мбайт (94%)
АудиоИдентификатор : 192 (0xC0)Формат : MPEG AudioВерсия формата : Version 1Профиль формата : Layer 2Продолжительность : 25 м.Вид битрейта : ПостоянныйБитрейт : 224 Кбит/секКаналы : 2 каналаЧастота : 48,0 КГцМетод сжатия : С потерямиРазмер потока : 41,5 Мбайт (4%)
Меню
ОбщееПолное имя : F:\MONAR.RU\Видео\История России и мира\Зимняя война\Диск 2\VIDEO_TS\VTS_03_2.VOBФормат : MPEG-PSРазмер файла : 3,58 МбайтПродолжительность : 6 с. 552 мс.Режим общего битрейта : ПеременныйОбщий поток : 4586 Кбит/сек
ВидеоИдентификатор : 224 (0xE0)Формат : MPEG VideoВерсия формата : Version 2Профиль формата : Main@MainПараметр BVOP формата : ДаПараметр матрицы формата : ВыборочнаяПараметр GOP формата : M=3, N=15Format_Settings_PictureStructure : FrameПродолжительность : 6 с. 520 мс.Вид битрейта : ПеременныйБитрейт : 4271 Кбит/секМаксимальный битрейт : 7500 Кбит/секШирина : 720 пикселейВысота : 576 пикселейСоотношение сторон : 4:3Частота кадров : 25,000 кадров/секСтандарт вещания : PALЦветовое пространство : YUVСубдискретизация насыщенности : 4:2:0Битовая глубина : 8 битТип развёртки : ЧересстрочнаяПорядок развёртки : Верхнее поле первоеМетод сжатия : С потерямиБит/(Пиксели*Кадры) : 0.412Временной код первого кадра : 01:25:53:06Оригинал временного кода : Group of pictures headerРазмер потока : 3,32 Мбайт (93%)
АудиоИдентификатор : 192 (0xC0)Формат : MPEG AudioВерсия формата : Version 1Профиль формата : Layer 2Продолжительность : 6 с. 552 мс.Вид битрейта : ПостоянныйБитрейт : 224 Кбит/секКаналы : 2 каналаЧастота : 48,0 КГцМетод сжатия : С потерямиЗадержка видео : -136 мс.Размер потока : 179 Кбайт (5%)
Меню
ОбщееПолное имя : F:\MONAR.RU\Видео\История России и мира\Зимняя война\Диск 2\VIDEO_TS\VTS_04_0.BUPФормат : DVD VideoПрофиль формата : ProgramРазмер файла : 32,0 КбайтПродолжительность : 26 м.Режим общего битрейта : ПеременныйОбщий поток : 168 бит/сек
ВидеоИдентификатор : 224 (0xE0)Формат : MPEG VideoВерсия формата : Version 2Продолжительность : 26 м.Вид битрейта : ПеременныйШирина : 720 пикселейВысота : 576 пикселейСоотношение сторон : 4:3Частота кадров : 25,000 кадров/секСтандарт вещания : PALМетод сжатия : С потерями
АудиоИдентификатор : 0 (0x0)Формат : MPEG AudioПрофиль формата : Version 1Продолжительность : 26 м.Каналы : 2 каналаЧастота : 48,0 КГцМетод сжатия : С потерямиЯзык : Russian
МенюПродолжительность : 26 м.00:00:00.000 : Chapter 100:01:59.480 : Chapter 200:03:59.440 : Chapter 300:05:59.600 : Chapter 400:07:59.880 : Chapter 500:09:59.600 : Chapter 600:11:59.560 : Chapter 700:13:59.600 : Chapter 800:15:59.800 : Chapter 900:17:59.840 : Chapter 1000:19:59.560 : Chapter 1100:21:59.960 : Chapter 1200:23:59.720 : Chapter 1300:26:00.000 : Chapter 1400:26:01.000 : Chapter 15List (Audio) : 0
ОбщееПолное имя : F:\MONAR.RU\Видео\История России и мира\Зимняя война\Диск 2\VIDEO_TS\VTS_04_0.IFOФормат : DVD VideoПрофиль формата : ProgramРазмер файла : 32,0 КбайтПродолжительность : 26 м.Режим общего битрейта : ПеременныйОбщий поток : 168 бит/сек
ВидеоИдентификатор : 224 (0xE0)Формат : MPEG VideoВерсия формата : Version 2Продолжительность : 26 м.Вид битрейта : ПеременныйШирина : 720 пикселейВысота : 576 пикселейСоотношение сторон : 4:3Частота кадров : 25,000 кадров/секСтандарт вещания : PALМетод сжатия : С потерями
АудиоИдентификатор : 0 (0x0)Формат : MPEG AudioПрофиль формата : Version 1Продолжительность : 26 м.Каналы : 2 каналаЧастота : 48,0 КГцМетод сжатия : С потерямиЯзык : Russian
МенюПродолжительность : 26 м.00:00:00.000 : Chapter 100:01:59.480 : Chapter 200:03:59.440 : Chapter 300:05:59.600 : Chapter 400:07:59.880 : Chapter 500:09:59.600 : Chapter 600:11:59.560 : Chapter 700:13:59.600 : Chapter 800:15:59.800 : Chapter 900:17:59.840 : Chapter 1000:19:59.560 : Chapter 1100:21:59.960 : Chapter 1200:23:59.720 : Chapter 1300:26:00.000 : Chapter 1400:26:01.000 : Chapter 15List (Audio) : 0
ОбщееПолное имя : F:\MONAR.RU\Видео\История России и мира\Зимняя война\Диск 2\VIDEO_TS\VTS_04_0.VOBФормат : MPEG-PSРазмер файла : 10,0 КбайтПродолжительность : 40 мс.Общий поток : 2048 Кбит/сек
ВидеоИдентификатор : 224 (0xE0)Формат : MPEG VideoВерсия формата : Version 2Профиль формата : Main@MainПараметр BVOP формата : НетПараметр матрицы формата : ВыборочнаяПродолжительность : 40 мс.Максимальный битрейт : 9000 Кбит/секШирина : 720 пикселейВысота : 576 пикселейСоотношение сторон : 4:3Частота кадров : 25,000 кадров/секСтандарт вещания : PALЦветовое пространство : YUVСубдискретизация насыщенности : 4:2:0Битовая глубина : 8 битТип развёртки : ПрогрессивнаяПорядок развёртки : Верхнее поле первоеМетод сжатия : С потерямиВременной код первого кадра : 00:00:00:00Оригинал временного кода : Group of pictures headerОсновные цвета : BT.601 NTSCХарактеристики трансфера : BT.601Коэффициенты матрицы : BT.601
Меню
ОбщееПолное имя : F:\MONAR.RU\Видео\История России и мира\Зимняя война\Диск 2\VIDEO_TS\VTS_04_1.VOBФормат : MPEG-PSРазмер файла : 1024 МбайтПродолжительность : 25 м.Режим общего битрейта : ПеременныйОбщий поток : 5529 Кбит/сек
ВидеоИдентификатор : 224 (0xE0)Формат : MPEG VideoВерсия формата : Version 2Профиль формата : Main@MainПараметр BVOP формата : ДаПараметр матрицы формата : ВыборочнаяПараметр GOP формата : M=3, N=15Format_Settings_PictureStructure : FrameПродолжительность : 25 м.Вид битрейта : ПеременныйБитрейт : 5195 Кбит/секМаксимальный битрейт : 7500 Кбит/секШирина : 720 пикселейВысота : 576 пикселейСоотношение сторон : 4:3Частота кадров : 25,000 кадров/секСтандарт вещания : PALЦветовое пространство : YUVСубдискретизация насыщенности : 4:2:0Битовая глубина : 8 битТип развёртки : ЧересстрочнаяПорядок развёртки : Верхнее поле первоеМетод сжатия : С потерямиБит/(Пиксели*Кадры) : 0.501Временной код первого кадра : 01:00:00:00Оригинал временного кода : Group of pictures headerРазмер потока : 962 Мбайт (94%)
АудиоИдентификатор : 192 (0xC0)Формат : MPEG AudioВерсия формата : Version 1Профиль формата : Layer 2Продолжительность : 25 м.Вид битрейта : ПостоянныйБитрейт : 224 Кбит/секКаналы : 2 каналаЧастота : 48,0 КГцМетод сжатия : С потерямиРазмер потока : 41,5 Мбайт (4%)
Меню
ОбщееПолное имя : F:\MONAR.RU\Видео\История России и мира\Зимняя война\Диск 2\VIDEO_TS\VTS_04_2.VOBФормат : MPEG-PSРазмер файла : 4,50 МбайтПродолжительность : 7 с. 368 мс.Режим общего битрейта : ПеременныйОбщий поток : 5121 Кбит/сек
ВидеоИдентификатор : 224 (0xE0)Формат : MPEG VideoВерсия формата : Version 2Профиль формата : Main@MainПараметр BVOP формата : ДаПараметр матрицы формата : ВыборочнаяПараметр GOP формата : M=3, N=15Format_Settings_PictureStructure : FrameПродолжительность : 7 с. 40 мс.Вид битрейта : ПеременныйБитрейт : 4795 Кбит/секМаксимальный битрейт : 7500 Кбит/секШирина : 720 пикселейВысота : 576 пикселейСоотношение сторон : 4:3Частота кадров : 25,000 кадров/секСтандарт вещания : PALЦветовое пространство : YUVСубдискретизация насыщенности : 4:2:0Битовая глубина : 8 битТип развёртки : ЧересстрочнаяПорядок развёртки : Верхнее поле первоеМетод сжатия : С потерямиБит/(Пиксели*Кадры) : 0.463Временной код первого кадра : 01:25:54:00Оригинал временного кода : Group of pictures headerРазмер потока : 4,02 Мбайт (89%)
АудиоИдентификатор : 192 (0xC0)Формат : MPEG AudioВерсия формата : Version 1Профиль формата : Layer 2Продолжительность : 7 с. 368 мс.Вид битрейта : ПостоянныйБитрейт : 224 Кбит/секКаналы : 2 каналаЧастота : 48,0 КГцМетод сжатия : С потерямиЗадержка видео : -440 мс.Размер потока : 201 Кбайт (4%)
Меню

Скриншот меню

Скриншоты

5. Начнём сначала

6 Преодоление хаоса

7. Между молотом и наковальней

8. Единственный выход

Обложка

[Profile]  [PM] 
Display posts:    
Reply to topic

Current time is: 17-Oct 20:46

All times are UTC + 2



You cannot post new topics in this forum
You cannot reply to topics in this forum
You cannot edit your posts in this forum
You cannot delete your posts in this forum
You cannot vote in polls in this forum
You cannot attach files in this forum
You cannot download files in this forum