Галифакс на войне: История бомбардировщика / Halifax at War: The Story of a Bomber (Джеймс Хислоп / James Hyslop) [2005, военный, авиация, DVD5 (Custom)] AVO А.Дольский

Reply to topic
 
Author
Message

Atila ®

Gender: Unknown

Longevity: 7 years 4 months

Posts: 2496

Reputation: 0 [+] [-]

Atila · Post 30-Oct-2014 01:55

[Quote] 

Галифакс на войне: История бомбардировщика / Halifax at War: The Story of a Bomber
Год выпуска: 2005
Страна: Великобритания
Жанр: военный, авиация
Продолжительность: 01:10:20
Перевод: Авторский (одноголосый закадровый)
Доп. инфо о переводе: А. Дольский
Русские субтитры: нет
Режиссер: Джеймс Хислоп / James Hyslop
Описание: Четырёхдвигательный бомбардировщик Галифакс был незаметным героем бомбардировачного командования Королевских ВВС Великобритании. Он совершил более 39000 вылетов над вражеской территорией, неся грузы, сбрасывая бомбы и выбрасывая агентов, буксируя планеры и отрабатывая новое эектронное оборудование. Было построено 6178 самолётов, Хендли Пэйдж выпускала один бомбардировщик в час в пик производства. Тем не менее, он почти забыт из-за более известного бомбардировщика Ланкастер. Способный переносить тяжелые боевые повреждения и заслужив любовь экипажей, он тем не менее был маломощным и медленным, и ненавидим главнокомандующим Бомбардировочного командования Харрисом, который пишет, что он "воняет" и что его "плохие летные характеристики убивают большое число наших экипажей ". Этот уникальный фильм о противоречивом британском бомбардировщике рассказывает историю Галифакса с момента его создания в 1937 году до его предвоенного варианта авиалайнера. Фильм включает редкие кадры - включая воздушные съёмки, кадры производства и крещения Галифакса, он также включает в себя эксклюзивные интервью с экс-пилотами Галифакса и членами экипажа, которые предлагают яркое описание того, каков самолет был на войне.
Так же представлена работа Ассоциации самолётов Галифакс в спасении Галифакса НС 337 из 644-й эскадрилья из глубины норвежских фьордов и невероятную работу, которая сейчас предпринимаются для восстановления самолета как дань памяти тем, кто отдал свою жизнь во время Второй мировой войны.
Доп. информация: Инициаторы перевода: alinto, Arias, babek555, умелец54, Белка123, Drenkens. Наложение чистого голоса на оригинальную дорогу Нордер. Всем спасибо.
Используемое ПО:
PGCDemux (извлечение).
BeSweet, Sony Vegas 9 (звук) Нордер.
MuxMan (сборка).
VobBlanker (финал)
Бонусы: Фотогалерея.
2 коротких бонусных видео:
Bonus 1. Halifax - Handley Page's Crowing Achievments (без звука).
Bonus 2. Halton Aircraft Takes The Air
Меню: есть, анимировано, озвучено.
Релиз:
Сэмпл: http://sendfile.su/1041525
Главы (разбивка по трекам): есть
Качество: DVD5 (Custom)
Формат: DVD Video
Видео кодек: MPEG2
Аудио кодек: AC3
Видео: PAL 4:3 (720x576) VBR, ~ 7127.29 kbps
Аудио 1: Russian (Dolby AC3, 2 ch, 256 kbps)
Аудио 2: English (Dolby AC3, 2 ch, 256 kbps)

DVDInfo

Size: 3.85 Gb ( 4 036 020,00 KBytes ) - DVD-5
Enabled regions: 1, 2, 3, 4, 5, 6, 7, 8
VTS_01 :
Play Length: 00:00:12
Video: PAL 4:3 (720x576) VBR
VTS_02 :
Play Length: 00:00:07
Video: PAL 4:3 (720x576) VBR
VTS_03 :
Play Length: 00:00:10
Video: PAL 4:3 (720x576) VBR
Audio:
English (Dolby AC3, 2 ch)
VTS_04 :
Play Length: 01:10:20
Video: PAL 4:3 (720x576) VBR
Audio:
Russian, AC3, 2/0 (L,R) ch, 256 kbps, Delay 0 mSec
English, AC3, 2/0 (L,R) ch, 256 kbps, Delay 0 mSec
VTS_05 :
Play Length: 00:05:11
Video: PAL 4:3 (720x576) VBR
VTS_06 :
Play Length: 00:00:44
Video: PAL 4:3 (720x576) VBR
Audio:
English (Dolby AC3, 2 ch)
* Menus Information *
VIDEO_TS Menu
Video:
NTSC 4:3 (720x480) VBR
Auto Pan&Scan, Auto Letterboxed
English Language Unit :
Title Menu
VTS_01 Menu
Video:
PAL 4:3 (720x576) VBR
Audio:
Not specified (Dolby AC3, 2 ch)
English Language Unit :
Root Menu
VTS_02 Menu
Video:
PAL 4:3 (720x576) VBR
English Language Unit :
Root Menu
VTS_03 Menu
Video:
PAL 4:3 (720x576) VBR
English Language Unit :
Root Menu
VTS_04 Menu
Video:
PAL 4:3 (720x576) VBR
English Language Unit :
Root Menu
VTS_05 Menu
Video:
PAL 4:3 (720x576) VBR
English Language Unit :
Root Menu
VTS_06 Menu
Video:
PAL 4:3 (720x576) VBR
English Language Unit :
Root Menu

MediaInfo

Формат : MPEG-PS
Размер файла : 1024 Мбайт
Продолжительность : 19 м.
Режим общего битрейта : Переменный
Общий поток : 7169 Кбит/сек
Видео
Идентификатор : 224 (0xE0)
Формат : MPEG Video
Версия формата : Version 2
Профиль формата : Main@Main
Параметр BVOP формата : Да
Параметр матрицы формата : По умолчанию
Параметр GOP формата : M=3, N=13
Продолжительность : 19 м.
Вид битрейта : Переменный
Битрейт : 6515 Кбит/сек
Максимальный битрейт : 8600 Кбит/сек
Ширина : 720 пикселей
Высота : 576 пикселей
Соотношение сторон : 4:3
Частота кадров : 25,000 кадров/сек
Стандарт вещания : PAL
Цветовое пространство : YUV
Субдискретизация насыщенности : 4:2:0
Битовая глубина : 8 бит
Тип развёртки : Чересстрочная
Порядок развёртки : Верхнее поле первое
Метод сжатия : С потерями
Бит/(Пиксели*Кадры) : 0.628
Временной код первого кадра : 10:00:00:00
Оригинал временного кода : Group of pictures header
Размер потока : 930 Мбайт (91%)
Основные цвета : BT.601 PAL
Характеристики трансфера : BT.470 System B, BT.470 System G
Коэффициенты матрицы : BT.601
Аудио #1
Идентификатор : 189 (0xBD)-128 (0x80)
Формат : AC-3
Формат/Информация : Audio Coding 3
Расширение режима : CM (complete main)
Параметр Endianness формата : Big
Режим смешивания : DVD-Video
Продолжительность : 19 м.
Вид битрейта : Постоянный
Битрейт : 256 Кбит/сек
Каналы : 2 канала
Расположение каналов : Front: L R
Частота : 48,0 КГц
Битовая глубина : 16 бит
Метод сжатия : С потерями
Размер потока : 36,6 Мбайт (4%)
Аудио #2
Идентификатор : 189 (0xBD)-129 (0x81)
Формат : AC-3
Формат/Информация : Audio Coding 3
Расширение режима : CM (complete main)
Параметр Endianness формата : Big
Режим смешивания : DVD-Video
Продолжительность : 19 м.
Вид битрейта : Постоянный
Битрейт : 256 Кбит/сек
Каналы : 2 канала
Расположение каналов : Front: L R
Частота : 48,0 КГц
Битовая глубина : 16 бит
Метод сжатия : С потерями
Размер потока : 36,6 Мбайт (4%)
Меню

Скриншоты меню

Скриншоты

Скриншоты доп. материалов

[Profile]  [PM] 
Display posts:    
Reply to topic

Current time is: 14-Oct 13:34

All times are UTC + 2



You cannot post new topics in this forum
You cannot reply to topics in this forum
You cannot edit your posts in this forum
You cannot delete your posts in this forum
You cannot vote in polls in this forum
You cannot attach files in this forum
You cannot download files in this forum