Харрикейн на войне / Hurricane At War (Кристофер Пурцель / Christopher Purcell) [1995, военный, документальный DVD5 (Custom)] AVO А.Дольский

Reply to topic
 
Author
Message

Atila ®

Gender: Unknown

Longevity: 7 years 3 months

Posts: 2491

Reputation: 0 [+] [-]

Atila · Post 15-Nov-2014 01:25

[Quote] 

Харрикейн на войне / Hurricane At War
Год выпуска: 1995
Страна: Великобритания
Жанр: военный, документальный
Продолжительность: 00:54:29
Перевод: Авторский (одноголосый закадровый)
Доп. инфо о переводе: А.Дольский
Русские субтитры: нет
Режиссер: Кристофер Пурцель / Christopher Purcell
Описание: "Харрикейн на войне" - это подробная история о Хаукер Харрикейне начиная с Hurricane 1, на счету которого первая победа Королевских ВВС во Второй Мировой Войне, до Hurricane IV, который отлично послужил против японцев на Тихоокеанском театре военных действий. С его грозным оружием и отличными лётными характеристиками Харрикейны записали более двух третей самолётов противника, уничтоженных в Битве за Британию. Изначально ориентированный против бомбардировочной авиации Люфтваффе, когда эскадрильи Спитфайров занимались истребительным сопровождением, Харрикейн, тем не менее, доказал свою способность побеждать и Мессершмиты Bf 109. Ветераны-пилоты Харрикейнов предлагают уникальную возможность взглянуть на то, каков он в полёте и как он показал себя в боях, сопровождая некоторыми лучшими видеоматериалами воздушных боёв в Битве за Британию. "Харрикейн на войне" так же предстаавляет версию Hurricane IID "Истребитель танков" в действии в Западной пустыне, и редкие кадры бомбовых ударов Харрикейнов по японским позициям в ходе Бирмской кампании. Так же включены воздушные съёмки PZ865 - последнего построенного Харрикейна, входящего в Мемориальную эскадрилью Битвы за Британию. Его пилот, лейтенант Пол Шентон проведёт ваз через полную предполётную подготовку, объяснит приборы и органы управления в кокпите, и предоставит вид глазами пилота на захватывающий полёт этого старого истребителя
Доп. информация: Инициаторы перевода: alinto, Arias, babek555, умелец54, Белка123. Наложение чистого голоса на оригинальную дорогу Нордер. Всем спасибо.
Используемое ПО:
PGCDemux (извлечение).
BeSweet, Sony Vegas 9 (звук) Нордер.
MuxMan (сборка).
VobBlanker (финал)
Бонусы:
Bonus 1. Hurricanes On Display
Продолжительность: 0:00:59
Bonus 2. A Sea Hurricane Flies Again
Продолжительность: 0:01:17
Bonus 3. Sea Hurricane On Display
Продолжительность: 0:01:18
Bonus 4. The Final Flypast
Продолжительность: 0:01:58
Bonus 5. Archive Footage
Продолжительность: 0:01:27
Bonus 6. Hurricanes In Greece
Продолжительность: 0:01:24
Меню: есть, анимировано, озвучено
Релиз:
Сэмпл: http://sendfile.su/1047902
Главы (разбивка по трекам): есть
Качество: DVD5 (Custom)
Формат: DVD Video
Видео кодек: MPEG2
Аудио кодек: AC3
Видео: PAL 4:3 (720x576) VBR
Аудио 1: Russian (Dolby AC3, 2 ch, 192 kbps)
Аудио 2: English (Dolby AC3, 2 ch, 192 kbps)

DVDInfo

Size: 3.15 Gb ( 3 301 574,00 KBytes ) - DVD-5Enabled regions: 1, 2, 3, 4, 5, 6, 7, 8
VTS_01 : Play Length: 00:00:16 Video: PAL 4:3 (720x576) VBR
VTS_02 : Play Length: 00:54:29+{00:02:52}+{00:09:43}+{00:07:06}+{00:08:04}+{00:11:29}+{00:11:57}+{00:01:22}+{00:01:53} Video: PAL 4:3 (720x576) VBR Audio: Russian, AC3, 2/0 (L,R) ch, 192 kbps, Delay 0 mSec English, AC3, 2/0 (L,R) ch, 192 kbps, Delay 0 mSec
VTS_03 : Play Length: 00:00:59 Video: PAL 4:3 (720x576) VBR Audio: Not specified (Dolby AC3, 2 ch)
VTS_04 : Play Length: 00:01:17 Video: PAL 4:3 (720x576) VBR Audio: Not specified (Dolby AC3, 2 ch)
VTS_05 : Play Length: 00:01:18 Video: PAL 4:3 (720x576) VBR Audio: Not specified (Dolby AC3, 2 ch)
VTS_06 : Play Length: 00:01:58 Video: PAL 4:3 (720x576) VBR Audio: Not specified (Dolby AC3, 2 ch)
VTS_07 : Play Length: 00:01:27 Video: PAL 4:3 (720x576) VBR Audio: Not specified (Dolby AC3, 2 ch)
VTS_08 : Play Length: 00:01:24 Video: PAL 4:3 (720x576) VBR Audio: Not specified (Dolby AC3, 2 ch)
* Menus Information *
VIDEO_TS MenuVideo: NTSC 4:3 (720x480) VBR Auto Pan&Scan, Auto LetterboxedEnglish Language Unit : Title Menu
VTS_01 MenuVideo: PAL 4:3 (720x576) VBRAudio: Not specified (Dolby AC3, 2 ch)English Language Unit : Root Menu
VTS_02 MenuVideo: PAL 4:3 (720x576) VBREnglish Language Unit : Root Menu
VTS_03 MenuVideo: PAL 4:3 (720x576) VBREnglish Language Unit : Root Menu
VTS_04 MenuVideo: PAL 4:3 (720x576) VBREnglish Language Unit : Root Menu
VTS_05 MenuVideo: PAL 4:3 (720x576) VBREnglish Language Unit : Root Menu
VTS_06 MenuVideo: PAL 4:3 (720x576) VBREnglish Language Unit : Root Menu
VTS_07 MenuVideo: PAL 4:3 (720x576) VBREnglish Language Unit : Root Menu
VTS_08 MenuVideo: PAL 4:3 (720x576) VBREnglish Language Unit : Root Menu

MediaInfo

Формат                                   : MPEG-PSРазмер файла                             : 1024 МбайтПродолжительность                        : 19 м.Режим общего битрейта                    : ПеременныйОбщий поток                              : 7275 Кбит/сек
ВидеоИдентификатор : 224 (0xE0)Формат : MPEG VideoВерсия формата : Version 2Профиль формата : Main@MainПараметр BVOP формата : ДаПараметр матрицы формата : ВыборочнаяПараметр GOP формата : M=3, N=15Продолжительность : 19 м.Вид битрейта : ПеременныйБитрейт : 6746 Кбит/секМаксимальный битрейт : 7000 Кбит/секШирина : 720 пикселейВысота : 576 пикселейСоотношение сторон : 4:3Частота кадров : 25,000 кадров/секСтандарт вещания : PALЦветовое пространство : YUVСубдискретизация насыщенности : 4:2:0Битовая глубина : 8 битТип развёртки : ЧересстрочнаяПорядок развёртки : Верхнее поле первоеМетод сжатия : С потерямиБит/(Пиксели*Кадры) : 0.651Временной код первого кадра : 00:00:00:00Оригинал временного кода : Group of pictures headerРазмер потока : 950 Мбайт (93%)Основные цвета : BT.601 PALХарактеристики трансфера : BT.470 System B, BT.470 System GКоэффициенты матрицы : BT.601
Аудио #1Идентификатор : 189 (0xBD)-128 (0x80)Формат : AC-3Формат/Информация : Audio Coding 3Расширение режима : CM (complete main)Параметр Endianness формата : BigРежим смешивания : DVD-VideoПродолжительность : 19 м.Вид битрейта : ПостоянныйБитрейт : 192 Кбит/секКаналы : 2 каналаРасположение каналов : Front: L RЧастота : 48,0 КГцБитовая глубина : 16 битМетод сжатия : С потерямиРазмер потока : 27,0 Мбайт (3%)
Аудио #2Идентификатор : 189 (0xBD)-129 (0x81)Формат : AC-3Формат/Информация : Audio Coding 3Расширение режима : CM (complete main)Параметр Endianness формата : BigРежим смешивания : DVD-VideoПродолжительность : 19 м.Вид битрейта : ПостоянныйБитрейт : 192 Кбит/секКаналы : 2 каналаРасположение каналов : Front: L RЧастота : 48,0 КГцБитовая глубина : 16 битМетод сжатия : С потерямиРазмер потока : 27,0 Мбайт (3%)
Меню

Скриншоты меню

Скриншоты

[Profile]  [PM] 
Display posts:    
Reply to topic

Current time is: 17-Sep 23:11

All times are UTC + 2



You cannot post new topics in this forum
You cannot reply to topics in this forum
You cannot edit your posts in this forum
You cannot delete your posts in this forum
You cannot vote in polls in this forum
You cannot attach files in this forum
You cannot download files in this forum