Тайна гостиницы "Англетер" (2 серии) (Галина Ясногородская) [2007 г., Познавательно-патриотический, DVD5]

Reply to topic
 
Author
Message

Atila ®

Gender: Unknown

Longevity: 7 years 4 months

Posts: 2497

Reputation: 0 [+] [-]

Atila · Post 19-Nov-2014 01:25

[Quote] 

Тайна гостиницы "Англетер" (2 серии)
Год выпуска: 2007
Страна: Россия
Жанр: Познавательно-патриотический
Продолжительность: 00:30:01 + 00:29:11 (2 x ~ 00:29:30)
Перевод: Не требуется
Русские субтитры: нет
Режиссер: Г. Ясногородская
Описание: Журналистское расследование противоречивых обстоятельств смерти поэта Сергея Есенина в ленинградской гостинице «Англетер» на фоне 14-го съезда РКП(б). На основании исторических документов, свидетельств оставшихся в живых современников и экспертов делаются выводы о насильственном характере гибели поэта, ложных или спорных показаниях причастных к этой трагедии лиц.
Доп. информация: Автор и ведущий - Виктор Правдюк.
Бонусы: Отстутствуют.
Меню: Присутствует, на русском, неанимированное, статичное, неозвученное
Сэмпл: http://sendfile.su/1049175
Главы (разбивка по трекам): есть
Качество: DVD5
Формат: DVD Video
Видео кодек: MPEG2
Аудио кодек: MP2
Видео: VBR ~ 7014-7037 Кбит/сек, PAL 720*576 (4:3), в 25,000 кадров/сек, MPEG2
Аудио: Русский, 320 Кбит/сек, 48,0 КГц, 2 канала, MP2

DVDInfo

Title: Тайна гостиницы ''Англетер''Size: 3.08 Gb ( 3 229 374 KBytes ) - DVD-5Enabled regions: 1, 2, 3, 4, 5, 6, 7, 8
VTS_01 : Play Length: 00:29:11 Video: PAL 4:3 (720x576) VBR Audio: English (MPEG1, 2 ch)
VTS_02 : Play Length: 00:30:01 Video: PAL 4:3 (720x576) VBR Audio: English (MPEG1, 2 ch)
Menu Video: PAL 4:3 (720x576) VBRMenu Subtitles: Not specifiedMenu English Language Unit : Root Menu

MediaInfo

ОбщееПолное имя                               : F:\MONAR.RU\Видео\Познавательные фильмы\Тайна гостиницы ''Англетер''\VIDEO_TS\VIDEO_TS.BUPФормат                                   : DVD VideoПрофиль формата                          : MenuРазмер файла                             : 14,0 КбайтРежим общего битрейта                    : Переменный
ВидеоИдентификатор : 224 (0xE0)Формат : MPEG VideoВерсия формата : Version 2Вид битрейта : ПеременныйШирина : 720 пикселейВысота : 576 пикселейСоотношение сторон : 4:3Частота кадров : 25,000 кадров/секСтандарт вещания : PALМетод сжатия : С потерями
ТекстФормат : RLEФормат/Информация : Run-length encodingБитовая глубина : 2 бит
ОбщееПолное имя : F:\MONAR.RU\Видео\Познавательные фильмы\Тайна гостиницы ''Англетер''\VIDEO_TS\VIDEO_TS.IFOФормат : DVD VideoПрофиль формата : MenuРазмер файла : 14,0 КбайтРежим общего битрейта : Переменный
ВидеоИдентификатор : 224 (0xE0)Формат : MPEG VideoВерсия формата : Version 2Вид битрейта : ПеременныйШирина : 720 пикселейВысота : 576 пикселейСоотношение сторон : 4:3Частота кадров : 25,000 кадров/секСтандарт вещания : PALМетод сжатия : С потерями
ТекстФормат : RLEФормат/Информация : Run-length encodingБитовая глубина : 2 бит
ОбщееПолное имя : F:\MONAR.RU\Видео\Познавательные фильмы\Тайна гостиницы ''Англетер''\VIDEO_TS\VIDEO_TS.VOBФормат : MPEG-PSРазмер файла : 10,0 КбайтПродолжительность : 40 мс.Общий поток : 2048 Кбит/сек
ВидеоИдентификатор : 224 (0xE0)Формат : MPEG VideoВерсия формата : Version 2Профиль формата : Main@MainПараметр BVOP формата : НетПараметр матрицы формата : ВыборочнаяПродолжительность : 40 мс.Максимальный битрейт : 9000 Кбит/секШирина : 720 пикселейВысота : 576 пикселейСоотношение сторон : 4:3Частота кадров : 25,000 кадров/секСтандарт вещания : PALЦветовое пространство : YUVСубдискретизация насыщенности : 4:2:0Битовая глубина : 8 битТип развёртки : ПрогрессивнаяПорядок развёртки : Верхнее поле первоеМетод сжатия : С потерямиВременной код первого кадра : 00:00:00:00Оригинал временного кода : Group of pictures headerОсновные цвета : BT.601 NTSCХарактеристики трансфера : BT.601Коэффициенты матрицы : BT.601
Меню
ОбщееПолное имя : F:\MONAR.RU\Видео\Познавательные фильмы\Тайна гостиницы ''Англетер''\VIDEO_TS\VTS_01_0.BUPФормат : DVD VideoПрофиль формата : ProgramРазмер файла : 34,0 КбайтПродолжительность : 29 м.Режим общего битрейта : ПеременныйОбщий поток : 159 бит/сек
ВидеоИдентификатор : 224 (0xE0)Формат : MPEG VideoВерсия формата : Version 2Продолжительность : 29 м.Вид битрейта : ПеременныйШирина : 720 пикселейВысота : 576 пикселейСоотношение сторон : 4:3Частота кадров : 25,000 кадров/секСтандарт вещания : PALМетод сжатия : С потерями
АудиоИдентификатор : 0 (0x0)Формат : MPEG AudioПрофиль формата : Version 1Продолжительность : 29 м.Каналы : 2 каналаЧастота : 48,0 КГцМетод сжатия : С потерямиЯзык : English
МенюПродолжительность : 29 м.00:00:00.000 : Chapter 100:03:00.000 : Chapter 200:05:59.680 : Chapter 300:08:59.960 : Chapter 400:11:59.680 : Chapter 500:14:59.960 : Chapter 600:17:59.960 : Chapter 700:20:59.960 : Chapter 800:23:59.960 : Chapter 900:26:59.560 : Chapter 1000:29:11.040 : Chapter 11List (Audio) : 0
ОбщееПолное имя : F:\MONAR.RU\Видео\Познавательные фильмы\Тайна гостиницы ''Англетер''\VIDEO_TS\VTS_01_0.IFOФормат : DVD VideoПрофиль формата : ProgramРазмер файла : 34,0 КбайтПродолжительность : 29 м.Режим общего битрейта : ПеременныйОбщий поток : 159 бит/сек
ВидеоИдентификатор : 224 (0xE0)Формат : MPEG VideoВерсия формата : Version 2Продолжительность : 29 м.Вид битрейта : ПеременныйШирина : 720 пикселейВысота : 576 пикселейСоотношение сторон : 4:3Частота кадров : 25,000 кадров/секСтандарт вещания : PALМетод сжатия : С потерями
АудиоИдентификатор : 0 (0x0)Формат : MPEG AudioПрофиль формата : Version 1Продолжительность : 29 м.Каналы : 2 каналаЧастота : 48,0 КГцМетод сжатия : С потерямиЯзык : English
МенюПродолжительность : 29 м.00:00:00.000 : Chapter 100:03:00.000 : Chapter 200:05:59.680 : Chapter 300:08:59.960 : Chapter 400:11:59.680 : Chapter 500:14:59.960 : Chapter 600:17:59.960 : Chapter 700:20:59.960 : Chapter 800:23:59.960 : Chapter 900:26:59.560 : Chapter 1000:29:11.040 : Chapter 11List (Audio) : 0
ОбщееПолное имя : F:\MONAR.RU\Видео\Познавательные фильмы\Тайна гостиницы ''Англетер''\VIDEO_TS\VTS_01_0.VOBФормат : MPEG-PSРазмер файла : 166 КбайтПродолжительность : 141 мс.Общий поток : 9644 Кбит/сек
ВидеоИдентификатор : 224 (0xE0)Формат : MPEG VideoВерсия формата : Version 2Профиль формата : Main@MainПараметр BVOP формата : НетПараметр матрицы формата : ВыборочнаяПродолжительность : 141 мс.Максимальный битрейт : 9000 Кбит/секШирина : 720 пикселейВысота : 576 пикселейСоотношение сторон : 4:3Частота кадров : 25,000 кадров/секСтандарт вещания : PALЦветовое пространство : YUVСубдискретизация насыщенности : 4:2:0Битовая глубина : 8 битТип развёртки : ПрогрессивнаяПорядок развёртки : Верхнее поле первоеМетод сжатия : С потерямиОсновные цвета : BT.601 NTSCХарактеристики трансфера : BT.601Коэффициенты матрицы : BT.601
ТекстИдентификатор : 189 (0xBD)-32 (0x20)Формат : RLEФормат/Информация : Run-length encodingРежим смешивания : DVD-VideoЗадержка видео : 101 мс.
Меню
ОбщееПолное имя : F:\MONAR.RU\Видео\Познавательные фильмы\Тайна гостиницы ''Англетер''\VIDEO_TS\VTS_01_1.VOBФормат : MPEG-PSРазмер файла : 1024 МбайтПродолжительность : 19 м.Режим общего битрейта : ПеременныйОбщий поток : 7483 Кбит/сек
ВидеоИдентификатор : 224 (0xE0)Формат : MPEG VideoВерсия формата : Version 2Профиль формата : Main@MainПараметр BVOP формата : ДаПараметр матрицы формата : ВыборочнаяПараметр GOP формата : M=3, N=15Format_Settings_PictureStructure : FrameПродолжительность : 19 м.Вид битрейта : ПеременныйБитрейт : 7014 Кбит/секМаксимальный битрейт : 8000 Кбит/секШирина : 720 пикселейВысота : 576 пикселейСоотношение сторон : 4:3Частота кадров : 25,000 кадров/секСтандарт вещания : PALЦветовое пространство : YUVСубдискретизация насыщенности : 4:2:0Битовая глубина : 8 битТип развёртки : ЧересстрочнаяПорядок развёртки : Верхнее поле первоеМетод сжатия : С потерямиБит/(Пиксели*Кадры) : 0.677Временной код первого кадра : 00:59:59:00Оригинал временного кода : Group of pictures headerРазмер потока : 960 Мбайт (94%)
АудиоИдентификатор : 192 (0xC0)Формат : MPEG AudioВерсия формата : Version 1Профиль формата : Layer 2Продолжительность : 19 м.Вид битрейта : ПостоянныйБитрейт : 320 Кбит/секКаналы : 2 каналаЧастота : 48,0 КГцМетод сжатия : С потерямиРазмер потока : 43,8 Мбайт (4%)
Меню
ОбщееПолное имя : F:\MONAR.RU\Видео\Познавательные фильмы\Тайна гостиницы ''Англетер''\VIDEO_TS\VTS_01_2.VOBФормат : MPEG-PSРазмер файла : 531 МбайтПродолжительность : 10 м.Режим общего битрейта : ПеременныйОбщий поток : 7378 Кбит/сек
ВидеоИдентификатор : 224 (0xE0)Формат : MPEG VideoВерсия формата : Version 2Профиль формата : Main@MainПараметр BVOP формата : ДаПараметр матрицы формата : ВыборочнаяПараметр GOP формата : M=3, N=15Format_Settings_PictureStructure : FrameПродолжительность : 10 м.Вид битрейта : ПеременныйБитрейт : 6911 Кбит/секМаксимальный битрейт : 8000 Кбит/секШирина : 720 пикселейВысота : 576 пикселейСоотношение сторон : 4:3Частота кадров : 25,000 кадров/секСтандарт вещания : PALЦветовое пространство : YUVСубдискретизация насыщенности : 4:2:0Битовая глубина : 8 битТип развёртки : ЧересстрочнаяПорядок развёртки : Верхнее поле первоеМетод сжатия : С потерямиБит/(Пиксели*Кадры) : 0.667Временной код первого кадра : 01:19:07:09Оригинал временного кода : Group of pictures headerРазмер потока : 497 Мбайт (94%)
АудиоИдентификатор : 192 (0xC0)Формат : MPEG AudioВерсия формата : Version 1Профиль формата : Layer 2Продолжительность : 10 м.Вид битрейта : ПостоянныйБитрейт : 320 Кбит/секКаналы : 2 каналаЧастота : 48,0 КГцМетод сжатия : С потерямиЗадержка видео : -616 мс.Размер потока : 23,0 Мбайт (4%)
Меню
ОбщееПолное имя : F:\MONAR.RU\Видео\Познавательные фильмы\Тайна гостиницы ''Англетер''\VIDEO_TS\VTS_02_0.BUPФормат : DVD VideoПрофиль формата : ProgramРазмер файла : 34,0 КбайтПродолжительность : 30 м.Режим общего битрейта : ПеременныйОбщий поток : 155 бит/сек
ВидеоИдентификатор : 224 (0xE0)Формат : MPEG VideoВерсия формата : Version 2Продолжительность : 30 м.Вид битрейта : ПеременныйШирина : 720 пикселейВысота : 576 пикселейСоотношение сторон : 4:3Частота кадров : 25,000 кадров/секСтандарт вещания : PALМетод сжатия : С потерями
АудиоИдентификатор : 0 (0x0)Формат : MPEG AudioПрофиль формата : Version 1Продолжительность : 30 м.Каналы : 2 каналаЧастота : 48,0 КГцМетод сжатия : С потерямиЯзык : English
МенюПродолжительность : 30 м.00:00:00.000 : Chapter 100:02:59.560 : Chapter 200:05:59.440 : Chapter 300:09:00.000 : Chapter 400:11:59.840 : Chapter 500:14:59.720 : Chapter 600:17:59.920 : Chapter 700:20:59.440 : Chapter 800:23:59.840 : Chapter 900:26:59.840 : Chapter 1000:29:59.880 : Chapter 1100:30:01.040 : Chapter 12List (Audio) : 0
ОбщееПолное имя : F:\MONAR.RU\Видео\Познавательные фильмы\Тайна гостиницы ''Англетер''\VIDEO_TS\VTS_02_0.IFOФормат : DVD VideoПрофиль формата : ProgramРазмер файла : 34,0 КбайтПродолжительность : 30 м.Режим общего битрейта : ПеременныйОбщий поток : 155 бит/сек
ВидеоИдентификатор : 224 (0xE0)Формат : MPEG VideoВерсия формата : Version 2Продолжительность : 30 м.Вид битрейта : ПеременныйШирина : 720 пикселейВысота : 576 пикселейСоотношение сторон : 4:3Частота кадров : 25,000 кадров/секСтандарт вещания : PALМетод сжатия : С потерями
АудиоИдентификатор : 0 (0x0)Формат : MPEG AudioПрофиль формата : Version 1Продолжительность : 30 м.Каналы : 2 каналаЧастота : 48,0 КГцМетод сжатия : С потерямиЯзык : English
МенюПродолжительность : 30 м.00:00:00.000 : Chapter 100:02:59.560 : Chapter 200:05:59.440 : Chapter 300:09:00.000 : Chapter 400:11:59.840 : Chapter 500:14:59.720 : Chapter 600:17:59.920 : Chapter 700:20:59.440 : Chapter 800:23:59.840 : Chapter 900:26:59.840 : Chapter 1000:29:59.880 : Chapter 1100:30:01.040 : Chapter 12List (Audio) : 0
ОбщееПолное имя : F:\MONAR.RU\Видео\Познавательные фильмы\Тайна гостиницы ''Англетер''\VIDEO_TS\VTS_02_0.VOBФормат : MPEG-PSРазмер файла : 10,0 КбайтПродолжительность : 40 мс.Общий поток : 2048 Кбит/сек
ВидеоИдентификатор : 224 (0xE0)Формат : MPEG VideoВерсия формата : Version 2Профиль формата : Main@MainПараметр BVOP формата : НетПараметр матрицы формата : ВыборочнаяПродолжительность : 40 мс.Максимальный битрейт : 9000 Кбит/секШирина : 720 пикселейВысота : 576 пикселейСоотношение сторон : 4:3Частота кадров : 25,000 кадров/секСтандарт вещания : PALЦветовое пространство : YUVСубдискретизация насыщенности : 4:2:0Битовая глубина : 8 битТип развёртки : ПрогрессивнаяПорядок развёртки : Верхнее поле первоеМетод сжатия : С потерямиВременной код первого кадра : 00:00:00:00Оригинал временного кода : Group of pictures headerОсновные цвета : BT.601 NTSCХарактеристики трансфера : BT.601Коэффициенты матрицы : BT.601
Меню
ОбщееПолное имя : F:\MONAR.RU\Видео\Познавательные фильмы\Тайна гостиницы ''Англетер''\VIDEO_TS\VTS_02_1.VOBФормат : MPEG-PSРазмер файла : 1024 МбайтПродолжительность : 19 м.Режим общего битрейта : ПеременныйОбщий поток : 7507 Кбит/сек
ВидеоИдентификатор : 224 (0xE0)Формат : MPEG VideoВерсия формата : Version 2Профиль формата : Main@MainПараметр BVOP формата : ДаПараметр матрицы формата : ВыборочнаяПараметр GOP формата : M=3, N=15Format_Settings_PictureStructure : FrameПродолжительность : 19 м.Вид битрейта : ПеременныйБитрейт : 7037 Кбит/секМаксимальный битрейт : 8000 Кбит/секШирина : 720 пикселейВысота : 576 пикселейСоотношение сторон : 4:3Частота кадров : 25,000 кадров/секСтандарт вещания : PALЦветовое пространство : YUVСубдискретизация насыщенности : 4:2:0Битовая глубина : 8 битТип развёртки : ЧересстрочнаяПорядок развёртки : Верхнее поле первоеМетод сжатия : С потерямиБит/(Пиксели*Кадры) : 0.679Временной код первого кадра : 00:59:59:00Оригинал временного кода : Group of pictures headerРазмер потока : 960 Мбайт (94%)
АудиоИдентификатор : 192 (0xC0)Формат : MPEG AudioВерсия формата : Version 1Профиль формата : Layer 2Продолжительность : 19 м.Вид битрейта : ПостоянныйБитрейт : 320 Кбит/секКаналы : 2 каналаЧастота : 48,0 КГцМетод сжатия : С потерямиРазмер потока : 43,6 Мбайт (4%)
Меню
ОбщееПолное имя : F:\MONAR.RU\Видео\Познавательные фильмы\Тайна гостиницы ''Англетер''\VIDEO_TS\VTS_02_2.VOBФормат : MPEG-PSРазмер файла : 575 МбайтПродолжительность : 10 м.Режим общего битрейта : ПеременныйОбщий поток : 7341 Кбит/сек
ВидеоИдентификатор : 224 (0xE0)Формат : MPEG VideoВерсия формата : Version 2Профиль формата : Main@MainПараметр BVOP формата : ДаПараметр матрицы формата : ВыборочнаяПараметр GOP формата : VariableFormat_Settings_PictureStructure : FrameПродолжительность : 10 м.Вид битрейта : ПеременныйБитрейт : 6875 Кбит/секМаксимальный битрейт : 8000 Кбит/секШирина : 720 пикселейВысота : 576 пикселейСоотношение сторон : 4:3Частота кадров : 25,000 кадров/секСтандарт вещания : PALЦветовое пространство : YUVСубдискретизация насыщенности : 4:2:0Битовая глубина : 8 битТип развёртки : ЧересстрочнаяПорядок развёртки : Верхнее поле первоеМетод сжатия : С потерямиБит/(Пиксели*Кадры) : 0.663Временной код первого кадра : 01:19:03:07Оригинал временного кода : Group of pictures headerРазмер потока : 538 Мбайт (94%)
АудиоИдентификатор : 192 (0xC0)Формат : MPEG AudioВерсия формата : Version 1Профиль формата : Layer 2Продолжительность : 10 м.Вид битрейта : ПостоянныйБитрейт : 320 Кбит/секКаналы : 2 каналаЧастота : 48,0 КГцМетод сжатия : С потерямиЗадержка видео : -176 мс.Размер потока : 25,1 Мбайт (4%)
Меню

Скриншоты меню

Обложка

Скриншоты

Серия 1

Скриншоты

Анаморфированные скриншоты

Серия 2

Скриншоты

Анаморфированные скриншоты

[Profile]  [PM] 
Display posts:    
Reply to topic

Current time is: 17-Oct 20:38

All times are UTC + 2



You cannot post new topics in this forum
You cannot reply to topics in this forum
You cannot edit your posts in this forum
You cannot delete your posts in this forum
You cannot vote in polls in this forum
You cannot attach files in this forum
You cannot download files in this forum