Ланкастер на войне / Lancaster at War (Кристофер Пурцель / Christopher Purcell) [1995, военный, авиация DVD5 (Custom)] AVO А.Дольский

Reply to topic
 
Author
Message

Atila ®

Gender: Unknown

Longevity: 7 years 3 months

Posts: 2491

Reputation: 0 [+] [-]

Atila · Post 21-Nov-2014 01:25

[Quote] 

Ланкастер на войне / Lancaster at War
Год выпуска: 1995
Страна: Великоритания
Жанр: военный, авиация
Продолжительность: 00:48:49
Перевод: Авторский (одноголосый закадровый)
Доп. инфо о переводе: А. Дольский
Русские субтитры: нет
Режиссер: Кристофер Пурцель / Christopher Purcell
Описание: "Ланкастер на войне" - документальный фильм об Авро Ланкастере, получившем широкое признание как лучший британский тяжелый бомбардировщик Второй Мировой войны. Используя лучший военных фильм и воздушные съёмки Ланкастера с номером PA 474, одного из двух летных экземпляров Ланкастера, он представляет впечатляющий взгляд крупным планом на действительно классический боевой самолет королевских ВВС. Ветеранский экипаж Ланкастера поделится своими яркими воспоминаниями о ночных рейдах над Германией и воздушных боях с перехватчиками люфтваффе, предлагая живой взгляд на то, как это - летать ночь за ночью на одни из наиболее опасных миссий за всю войну. Поднимающийся из неудачного проекта бомбардировщика Манчестер, Ланкастер оказался самым мощным оружием в арсенале бомбардировочной авиации и сыграл важную роль в разгроме нацистской военной машины. Драматические кадры из ночных и дневных налеты включает редкие цветные съёмки. Так же представлены атаки Ланкастеров на "Тирпиц", и на считавшуюся неприступной базу подлодок в Гавре, бомбардировка 22000-фунтовыми бомбами виадуков в Рурской области и взгляд на секретную подготовку к рейду "разрушителей плотин".
Доп. информация: Инициаторы перевода: alinto, Arias, babek555, умелец54, Белка123. Наложение чистого голоса на оригинальную дорогу Нордер. Всем спасибо.
Используемое ПО:
PGCDemux (извлечение).
BeSweet, Sony Vegas 9 (звук) Нордер.
MuxMan (сборка).
VobBlanker (финал)
Бонусы:
Bonus 1. Hurricanes On Display
Продолжительность: 0:00:59
Bonus 2. A Sea Hurricane Flies Again
Продолжительность: 0:01:17
Bonus 3. Sea Hurricane On Display
Продолжительность: 0:01:18
Bonus 4. The Final Flypast
Продолжительность: 0:01:58
Bonus 5. Archive Footage
Продолжительность: 0:01:27
Bonus 6. Hurricanes In Greece
Продолжительность: 0:01:24
Меню: есь, озвучено, анимировано
Релиз:
Сэмпл: http://sendfile.su/1050398
Главы (разбивка по трекам): есть
Качество: DVD5 (Custom)
Формат: DVD Video
Видео кодек: MPEG2
Аудио кодек: AC3
Видео: PAL 4:3 (720x576) VBR
Аудио 1: Russian (Dolby AC3, 2 ch, 192 kbps)
Аудио 2: English (Dolby AC3, 2 ch, 192 kbps)

DVDInfo

Size: 3.07 Gb ( 3 214 154,00 KBytes ) - DVD-5Enabled regions: 1, 2, 3, 4, 5, 6, 7, 8
VTS_01 : Play Length: 00:00:16 Video: PAL 4:3 (720x576) VBR
VTS_02 : Play Length: 00:48:49+{00:01:15}+{00:04:22}+{00:05:21}+{00:09:39}+{00:09:28}+{00:01:55}+{00:06:59}+{00:03:06}+{00:02:49}+{00:02:05}+{00:01:46} Video: PAL 4:3 (720x576) VBR Audio: Russian, AC3, 2/0 (L,R) ch, 192 kbps, Delay 0 mSec English, AC3, 2/0 (L,R) ch, 192 kbps, Delay 0 mSec
VTS_03 : Play Length: 00:02:58 Video: PAL 4:3 (720x576) VBR Audio: Not specified (Dolby AC3, 2 ch)
VTS_04 : Play Length: 00:02:01 Video: PAL 4:3 (720x576) VBR Audio: Not specified (Dolby AC3, 2 ch)
VTS_05 : Play Length: 00:02:08 Video: PAL 4:3 (720x576) VBR Audio: Not specified (Dolby AC3, 2 ch)
VTS_06 : Play Length: 00:03:52 Video: PAL 4:3 (720x576) VBR Audio: Not specified (Dolby AC3, 2 ch)
VTS_07 : Play Length: 00:01:22 Video: PAL 4:3 (720x576) VBR Audio: Not specified (Dolby AC3, 2 ch)
VTS_08 : Play Length: 00:02:34 Video: PAL 4:3 (720x576) VBR Audio: Not specified (Dolby AC3, 2 ch)
* Menus Information *
VIDEO_TS MenuVideo: NTSC 4:3 (720x480) VBR Auto Pan&Scan, Auto LetterboxedEnglish Language Unit : Title Menu
VTS_01 MenuVideo: PAL 4:3 (720x576) VBRAudio: Not specified (Dolby AC3, 2 ch)English Language Unit : Root Menu
VTS_02 MenuVideo: PAL 4:3 (720x576) VBREnglish Language Unit : Root Menu
VTS_03 MenuVideo: PAL 4:3 (720x576) VBREnglish Language Unit : Root Menu
VTS_04 MenuVideo: PAL 4:3 (720x576) VBREnglish Language Unit : Root Menu
VTS_05 MenuVideo: PAL 4:3 (720x576) VBREnglish Language Unit : Root Menu
VTS_06 MenuVideo: PAL 4:3 (720x576) VBREnglish Language Unit : Root Menu
VTS_07 MenuVideo: PAL 4:3 (720x576) VBREnglish Language Unit : Root Menu
VTS_08 MenuVideo: PAL 4:3 (720x576) VBREnglish Language Unit : Root Menu

MediaInfo

Формат                                   : MPEG-PSРазмер файла                             : 1024 МбайтПродолжительность                        : 30 м.Режим общего битрейта                    : ПеременныйОбщий поток                              : 4769 Кбит/сек
ВидеоИдентификатор : 224 (0xE0)Формат : MPEG VideoВерсия формата : Version 2Профиль формата : Main@MainПараметр BVOP формата : ДаПараметр матрицы формата : По умолчаниюПараметр GOP формата : M=3, N=13Продолжительность : 30 м.Вид битрейта : ПеременныйБитрейт : 4450 Кбит/секМаксимальный битрейт : 7500 Кбит/секШирина : 720 пикселейВысота : 576 пикселейСоотношение сторон : 2,40:1Частота кадров : 25,000 кадров/секСтандарт вещания : PALЦветовое пространство : YUVСубдискретизация насыщенности : 4:2:0Битовая глубина : 8 битТип развёртки : ЧересстрочнаяПорядок развёртки : Верхнее поле первоеМетод сжатия : С потерямиБит/(Пиксели*Кадры) : 0.429Временной код первого кадра : 01:25:15:20Оригинал временного кода : Group of pictures headerРазмер потока : 955 Мбайт (93%)Основные цвета : BT.601 PALХарактеристики трансфера : BT.470 System B, BT.470 System GКоэффициенты матрицы : BT.601
АудиоИдентификатор : 189 (0xBD)-128 (0x80)Формат : AC-3Формат/Информация : Audio Coding 3Расширение режима : CM (complete main)Параметр Endianness формата : BigРежим смешивания : DVD-VideoПродолжительность : 30 м.Вид битрейта : ПостоянныйБитрейт : 224 Кбит/секКаналы : 2 каналаРасположение каналов : Front: L RЧастота : 48,0 КГцБитовая глубина : 16 битМетод сжатия : С потерямиЗадержка видео : -408 мс.Размер потока : 48,1 Мбайт (5%)
Текст #1Идентификатор : 189 (0xBD)-32 (0x20)Формат : RLEФормат/Информация : Run-length encodingРежим смешивания : DVD-VideoПродолжительность : 29 м.Задержка видео : 4 с. 120 мс.
Текст #2Идентификатор : 189 (0xBD)-33 (0x21)Формат : RLEФормат/Информация : Run-length encodingРежим смешивания : DVD-VideoПродолжительность : 29 м.Задержка видео : 4 с. 80 мс.
Меню

Скриншоты меню

Скриншоты

[Profile]  [PM] 
Display posts:    
Reply to topic

Current time is: 17-Sep 22:36

All times are UTC + 2



You cannot post new topics in this forum
You cannot reply to topics in this forum
You cannot edit your posts in this forum
You cannot delete your posts in this forum
You cannot vote in polls in this forum
You cannot attach files in this forum
You cannot download files in this forum