Американец / The American (Антон Корбайн / Anton Corbijn) [2010, США, триллер, драма, криминал, DVDRip] DUB лицензия

Reply to topic
 
Author
Message

Varg ®

Gender: Unknown

Longevity: 11 years

Posts: 2762

Reputation: 0 [+] [-]

Varg · Post 01-Nov-2010 02:35

[Quote] 

Американец / The American
Страна: США
Студия: FOCUS FEATURES
Жанр: триллер, драма, криминал
Год выпуска: 2010
Продолжительность: 01:40:35
Перевод: Профессиональный (дублированный)
Субтитры: нет
Оригинальная аудиодорожка: нет
Режиссер: Антон Корбайн / Anton Corbijn
В ролях: Джордж Клуни, Ирина Бьёрклунд, Ларс Эльм, Йохан Лейзен, Паоло Боначелли, Джорджо Гобби, Сильвана Бози, Текла Рютен, Guido Palliggiano, Самули Ваурамо...
Описание: После провала очередной операции и гибели любовницы профессиональный киллер Джек решает завершить свою карьеру. Остается последнее дело, заказанное ему таинственной женщиной, для выполнения которого он тайно едет в Италию и поселяется в маленьком городке, затерявшемся в живописных горах. Здесь неожиданно для себя самого Джек сближается с местным священником и влюбляется в красавицу Клару. Впервые в жизни раскрывается сердце человека, вынужденного таиться всю свою жизнь. Джек спокоен и счастлив настолько, что теряет бдительность…

Бюджет: $20 000 000

Тип релиза: DVDRip, источник: DVD9 R5 от группы
Контейнер: AVI
Видео: 720x400 (16:9), 25.000 fps, XVID ~1677 kbps avg, 0.233 bit/pixel
Аудио : 48 kHz, AC3, 6 ch, 384.00 kbps Constant

MediaInfo

General
Complete name : Amerikanets.2010.D.DVDRip.avi
Format : AVI
Format/Info : Audio Video Interleave
File size : 1.45 GiB
Duration : 1h 40mn
Overall bit rate : 2 070 Kbps
Writing application : VirtualDubMod 1.5.10.3 (build 2550/release)
Writing library : VirtualDubMod build 2550/release
Video
ID : 0
Format : MPEG-4 Visual
Format profile : Advanced Simple@L5
Format settings, BVOP : Yes
Format settings, QPel : No
Format settings, GMC : No warppoints
Format settings, Matrix : Custom
Codec ID : XVID
Codec ID/Hint : XviD
Duration : 1h 40mn
Bit rate : 1 677 Kbps
Width : 720 pixels
Height : 400 pixels
Display aspect ratio : 16:9
Frame rate : 25.000 fps
Color space : YUV
Chroma subsampling : 4:2:0
Bit depth : 8 bits
Scan type : Progressive
Bits/(Pixel*Frame) : 0.233
Stream size : 1.18 GiB (81%)
Writing library : XviD 1.2.1 (UTC 2008-12-04)
Audio
ID : 1
Format : AC-3
Format/Info : Audio Coding 3
Mode extension : CM (complete main)
Codec ID : 2000
Duration : 1h 40mn
Bit rate mode : Constant
Bit rate : 384 Kbps
Channel(s) : 6 channels
Channel positions : Front: L C R, Side: L R, LFE
Sampling rate : 48.0 KHz
Bit depth : 16 bits
Stream size : 276 MiB (19%)
Alignment : Split accross interleaves
Interleave, duration : 40 ms (1.00 video frame)
Interleave, preload duration : 500 ms

Скриншот с названием

Скриншоты

[Profile]  [PM] 
Display posts:    
Reply to topic

Current time is: 02-Dec 19:54

All times are UTC + 2



You cannot post new topics in this forum
You cannot reply to topics in this forum
You cannot edit your posts in this forum
You cannot delete your posts in this forum
You cannot vote in polls in this forum
You cannot attach files in this forum
You cannot download files in this forum