Непослушный или хороший / Плохой или хороший / Naughty or Nice (Дэвид Маккэй / David Mackay) [2012, Канада, США, Драма, Фэнтези, HDTVRip] MVO

Reply to topic
 
Author
Message

Satyr ®

Gender: Unknown

Longevity: 11 years

Posts: 15401

Reputation: 55 [+] [-]

Satyr · Post 18-Jan-2015 13:45

[Quote] 

Непослушный или хороший / Плохой или хороший / Naughty or Nice
Страна: Канада, США
Жанр: Драма, Фэнтези
Год выпуска: 2012
Продолжительность: 01:24:31
Перевод: Профессиональный (многоголосый закадровый)
Cубтитры: нет
Режиссер: Дэвид Маккэй / David Mackay
В ролях: Мэтт Даллас
Хилари Бертон
Тони Кавалеро
Джессика Так
Гэбриел Тайгерман
Мишель Херд
Майкл Гросс
Мередит Бакстер
Дэна Баррон
Дэннил Эклс
Описание: Крисси Крингл получает посылку, в которой лежит книга «Плохой или хороший» - бандероль предназначалась Санта-Клаусу, забывшему ее у одного из детей. Девушка решает использовать магическую силу книги, чтобы узнавать о плохих поступках окружающих ее людей, однако вскоре понимает, что это может привести к негативным последствиям…
Сэмпл: https://yadi.sk/i/U8kzPF1ze4ZW2
Доп. информация: За предоставленный рип благодарим Ledy_X
"Спасибы" просьба ПИСАТЬ в теме, тем самым вы продлеваете жизнь раздаче.
Релиз-первоисточник
Видео: 720x400 (1.80:1), 25 fps, XviD build 50 ~2113 kbps avg, 0.29 bit/pixel
Аудио: 48 kHz, AC3 Dolby Digital, 2/0 (L,R) ch, ~192 kbps

MediaInfo

Плохой или хороший - Naughty or Nice [Rip by Ledy_X].avi
Format : AVI
Format/Info : Audio Video Interleave
File size : 1.37 GiB
Duration : 1h 24mn
Overall bit rate : 2 316 Kbps
Movie name : Плохой или хороший - Naughty or Nice [Rip by Ledy_X]
Director : Rip by Ledy_X
Writing application : VirtualDubMod 1.5.10.3 | www.virtualdub-fr.org || (build 2550/release)
Copyright : Edich2
Comment : torrentsland.com.ua
Video
ID : 0
Format : MPEG-4 Visual
Format profile : Advanced Simple@L5
Format settings, BVOP : 1
Format settings, QPel : No
Format settings, GMC : No warppoints
Format settings, Matrix : Default (MPEG)
Codec ID : XVID
Codec ID/Hint : XviD
Duration : 1h 24mn
Bit rate : 2 114 Kbps
Width : 720 pixels
Height : 400 pixels
Display aspect ratio : 16:9
Frame rate : 25.000 fps
Color space : YUV
Chroma subsampling : 4:2:0
Bit depth : 8 bits
Scan type : Progressive
Compression mode : Lossy
Bits/(Pixel*Frame) : 0.294
Stream size : 1.25 GiB (91%)
Writing library : XviD 1.2.1 (UTC 2008-12-04)
Audio
ID : 1
Format : AC-3
Format/Info : Audio Coding 3
Mode extension : CM (complete main)
Format settings, Endianness : Big
Codec ID : 2000
Duration : 1h 24mn
Bit rate mode : Constant
Bit rate : 192 Kbps
Channel(s) : 2 channels
Channel positions : Front: L R
Sampling rate : 48.0 KHz
Bit depth : 16 bits
Compression mode : Lossy
Stream size : 116 MiB (8%)
Alignment : Split accross interleaves
Interleave, duration : 40 ms (1.00 video frame)
Interleave, preload duration : 500 ms

Скриншоты


[Profile]  [PM] 
Display posts:    
Reply to topic

Current time is: 25-Nov 23:50

All times are UTC + 2



You cannot post new topics in this forum
You cannot reply to topics in this forum
You cannot edit your posts in this forum
You cannot delete your posts in this forum
You cannot vote in polls in this forum
You cannot attach files in this forum
You cannot download files in this forum