Кровавый выстрел / Blood Shot (Дитрих Джонстон / Dietrich Johnston) [2013, США, ужасы, боевик, комедия, DVDRip] VO (Васька Куролесов)

Reply to topic
 
Author
Message

Satyr ®

Gender: Unknown

Longevity: 11 years

Posts: 15401

Reputation: 55 [+] [-]

Satyr · Post 18-Jan-2015 13:45

[Quote] 

Кровавый выстрел / Blood Shot
Страна: США
Жанр: ужасы, боевик, комедия
Год выпуска: 2013
Продолжительность: 01:35:50
Перевод: Одноголосый закадровый Васька Куролесов по субтитрам ВОРОН
Cубтитры: нет
Оригинальная аудиодорожка: нет
Режиссер: Дитрих Джонстон / Dietrich Johnston
В ролях: Бреннан Эллиотт, Майкл Бэйли Смит, Брэд Дуриф, Лэнс Хенриксен, Кристофер Ламберт, Мартин Клебба, Ассаф Коэн, Азита Ганизада, Джой Нейбр, Херцл Тоби
Описание: Полицейские объединятся с вампирами, чтобы дать отпор террористам, которые хотят устроить ужасную бойню на территории США…
Доп. информация:

Сэмпл: http://multi-up.com/1027331
Качество видео: DVDRip
Формат видео: AVI
Видео: 720x400 (1.80:1), 23.976 fps, XviD build 65 ~1840 kbps avg, 0.27 bit/pixel
Аудио: 48 kHz, AC3 Dolby Digital, 2/0 (L,R) ch, ~192 kbps

MediaInfo

General
Complete name : C:\Users\Вика\Desktop\Вlооd Shоt.DVDRip.2013.avi
Format : AVI
Format/Info : Audio Video Interleave
File size : 1.37 GiB
Duration : 1h 35mn
Overall bit rate : 2 042 Kbps
Writing application : VirtualDubMod 1.5.10.2 (build 2540/release)
Writing library : VirtualDubMod build 2540/release
Video
ID : 0
Format : MPEG-4 Visual
Format profile : Advanced Simple@L5
Format settings, BVOP : 2
Format settings, QPel : No
Format settings, GMC : No warppoints
Format settings, Matrix : Default (H.263)
Codec ID : XVID
Codec ID/Hint : XviD
Duration : 1h 35mn
Bit rate : 1 840 Kbps
Width : 720 pixels
Height : 400 pixels
Display aspect ratio : 16:9
Frame rate : 23.976 fps
Color space : YUV
Chroma subsampling : 4:2:0
Bit depth : 8 bits
Scan type : Progressive
Compression mode : Lossy
Bits/(Pixel*Frame) : 0.267
Stream size : 1.23 GiB (90%)
Writing library : XviD 65
Audio
ID : 1
Format : AC-3
Format/Info : Audio Coding 3
Mode extension : CM (complete main)
Format settings, Endianness : Big
Codec ID : 2000
Duration : 1h 35mn
Bit rate mode : Constant
Bit rate : 192 Kbps
Channel(s) : 2 channels
Channel positions : Front: L R
Sampling rate : 48.0 KHz
Bit depth : 16 bits
Compression mode : Lossy
Stream size : 132 MiB (9%)
Alignment : Split accross interleaves
Interleave, duration : 42 ms (1.00 video frame)
Interleave, preload duration : 500 ms

Скриншот c названием фильма

Скриншоты

[Profile]  [PM] 
Display posts:    
Reply to topic

Current time is: 03-Dec 08:44

All times are UTC + 2



You cannot post new topics in this forum
You cannot reply to topics in this forum
You cannot edit your posts in this forum
You cannot delete your posts in this forum
You cannot vote in polls in this forum
You cannot attach files in this forum
You cannot download files in this forum