Шальные деньги / Snabba Cash (Дэниэл Эспиноза / Daniel Espinosa) [2010, Швеция, Триллер, Драма, Криминал, HDRip] MVO + original swe

Reply to topic
 
Author
Message

Hrolf ®

Gender: Unknown

Longevity: 9 years

Posts: 127

Reputation: 0 [+] [-]

Hrolf · Post 16-Jan-2011 02:42

[Quote] 

Шальные деньги / Snabba Cash
Страна: Швеция
Жанр: Триллер, Драма, Криминал
Год выпуска: 2010
Продолжительность: 02:04:14
Перевод: Профессиональный (двухголосый закадровый) Студия "ELROM"
Cубтитры: нет
Оригинальная аудиодорожка: шведский
Режиссер: Дэниэл Эспиноза / Daniel Espinosa
В ролях: Джоэль Киннаман, Матиас Пэдин Вэрела, Драгомир Мрсик, Лиза Хенни, Махмут Сувакси, Джонс Данко, Лиа Стоянова, Деян Чукич, Миодраг Стоянович, Джоэль Спира
Описание: Стокгольмский таксист, решивший подработать, соглашается на предложение своего босса начать торговать кокаином. Постепенно в дело оказываются замешаны югославская мафия, сбежавший из тюрьмы латиноамериканец, на эту мафию работавший, и серб, мечтающий покончить с криминальной жизнью.
Качество видео: HDRip
Исходник:Неизвестен
Формат видео: AVI
Сэмпл:http://multi-up.com/411018
Видео: 720x304 (2.37:1), 24.000 fps, XviD build 50 ~1591 kbps avg, 0.30 bit/pixel
Аудио: 48 kHz, AC3 Dolby Digital, 6 ch, ~384.00 kbps avg
Аудио 2(шведский): 48 kHz, AC3 Dolby Digital, 6 ch, ~384.00 kbps avg

MediaInfo

D:\Games\Рутрекер\Shalnye.dengi.2010.P.HDRip.2100MB.avi
General
Complete name : D:\Games\Рутрекер\Shalnye.dengi.2010.P.HDRip.2100MB.avi
Format : AVI
Format/Info : Audio Video Interleave
Format profile : OpenDML
File size : 2.05 GiB
Duration : 2h 4mn
Overall bit rate : 2 367 Kbps
Movie name : Snabba.Cash.2010.L1.HDRip.
Genre : Crime/Drama/Thriller
Writing application : VirtualDubMod 1.5.10.2 (build 2540/release)
Writing library : VirtualDubMod build 2540/release
Original source form/Name : Movie
Video #0
ID : 0
Format : MPEG-4 Visual
Format profile : AdvancedSimple@L5
Format settings, BVOP : Yes
Format settings, QPel : No
Format settings, GMC : No warppoints
Format settings, Matrix : Default (MPEG)
Codec ID : XVID
Codec ID/Hint : XviD
Duration : 2h 4mn
Bit rate : 1 580 Kbps
Width : 720 pixels
Height : 304 pixels
Display aspect ratio : 2.35:1
Frame rate : 24.000 fps
Resolution : 24 bits
Colorimetry : 4:2:0
Scan type : Progressive
Bits/(Pixel*Frame) : 0.301
Stream size : 1.37 GiB (67%)
Writing library : XviD 1.2.1 (UTC 2008-12-04)
Audio #1
ID : 1
Format : AC-3
Format/Info : Audio Coding 3
Codec ID : 2000
Duration : 2h 4mn
Bit rate mode : Constant
Bit rate : 384 Kbps
Channel(s) : 6 channels
Channel positions : Front: L C R, Surround: L R, LFE
Sampling rate : 48.0 KHz
Stream size : 341 MiB (16%)
Alignment : Split accross interleaves
Interleave, duration : 42 ms (1.00 video frame)
Interleave, preload duration : 500 ms
Audio #2
ID : 2
Format : AC-3
Format/Info : Audio Coding 3
Codec ID : 2000
Duration : 2h 4mn
Bit rate mode : Constant
Bit rate : 384 Kbps
Channel(s) : 6 channels
Channel positions : Front: L C R, Surround: L R, LFE
Sampling rate : 48.0 KHz
Stream size : 341 MiB (16%)
Alignment : Split accross interleaves
Interleave, duration : 42 ms (1.00 video frame)
Interleave, preload duration : 500 ms

Скриншот с названием фильма

Скриншоты




[Profile]  [PM] 
Display posts:    
Reply to topic

Current time is: 02-Dec 20:50

All times are UTC + 2



You cannot post new topics in this forum
You cannot reply to topics in this forum
You cannot edit your posts in this forum
You cannot delete your posts in this forum
You cannot vote in polls in this forum
You cannot attach files in this forum
You cannot download files in this forum