Потустороннее / Hereafter (Клинт Иствуд / Clint Eastwood) [2010, США, Фэнтези, драма, DVDRip] DVO

Reply to topic
 
Author
Message

Satyr ®

Gender: Unknown

Longevity: 11 years

Posts: 15401

Reputation: 55 [+] [-]

Satyr · Post 20-Mar-2011 20:03

[Quote] 

Потустороннее / Hereafter

Страна: США
Жанр: Фэнтези, драма
Год выпуска: 2010
Продолжительность: 02:09:02
Перевод: Любительский (двухголосый закадровый)
Cубтитры: нет
Режиссер: Клинт Иствуд / Clint Eastwood
В ролях: Мэтт Дэймон, Сесиль де Франс, Тьерри Новик, Синди Майо Дэвис, Лиза Гриффитс, Джессика Гриффитс, Фергюсон Рейд, Дерек Сакакура, Джей Мор, Ричард Кайнд
Описание: Три параллельные и вскоре пересекающиеся истории о людях, познавших смерть. Французская журналистка, пережившая цунами в 2004 году, и наркоманка, потерявшая в автокатастрофе одного из десятилетних сыновей-близнецов, обращаются к умеющему разговаривать с мертвыми человеку в поисках ответов и утешения.

Сэмпл: http://onemove.ru/42877/
Качество видео: DVDRip (источник неизвестен)
Формат видео: AVI
Видео: 720x304 (2.37:1), 23.976 fps, XviD MPEG-4 ~1125 kbps avg, 0.21 bit/pixel
Аудио: 48 kHz, AC3 Dolby Digital, 3/2 (L,C,R,l,r) + LFE ch, ~384 kbps

MediaInfo

Общее
Полное имя : C:\Users\Никита\Documents\torrents\eastwood\Potustoronneje (2010) DVDRip 1400mb.avi
Формат : AVI
Формат/Информация : Audio Video Interleave
Размер файла : 1,37 Гбайт
Продолжительность : 2 ч. 9 м.
Общий поток : 1519 Кбит/сек
Программа кодирования : VirtualDubMod 1.5.4.1 (build 2178/release)
Библиотека кодирования : VirtualDubMod build 2178/release
Видео
Идентификатор : 0
Формат : MPEG-4 Visual
Профиль формата : Advanced Simple@L5
Параметр BVOP формата : 2
Параметр QPel формата : Нет
Параметр GMC формата : Без точки перехода
Параметр матрицы формата : Выборочная
Идентификатор кодека : XVID
Идентификатор кодека/Подсказка : XviD
Продолжительность : 2 ч. 9 м.
Битрейт : 1125 Кбит/сек
Ширина : 720 пикс.
Высота : 304 пикс.
Соотношение сторон : 2,35:1
Частота кадров : 23,976 кадр/сек
Цветовое пространство : YUV
Подвыборка цветности : 4:2:0
Битовая глубина : 8 бит
Тип развёртки : Прогрессивная
Метод сжатия : С потерями
Бит/(Пиксели*Кадры) : 0.214
Размер потока : 1,01 Гбайт (74%)
Библиотека кодирования : XviD 58
Аудио
Идентификатор : 1
Формат : AC-3
Формат/Информация : Audio Coding 3
Расширение режима : CM (complete main)
Идентификатор кодека : 2000
Продолжительность : 2 ч. 9 м.
Вид битрейта : Постоянный
Битрейт : 384 Кбит/сек
Канал(ы) : 6 канала(ов)
Расположение каналов : Front: L C R, Side: L R, LFE
Частота : 48,0 КГц
Битовая глубина : 16 бит
Метод сжатия : С потерями
Размер потока : 354 Мбайт (25%)
Выравнивание : Разделение по промежуткам
Продолжительность промежутка : 42 мс. (1,00 видеокадр)
Время предзагрузки промежутка : 500 ms

Скриншот c названием фильма

Скриншоты

[Profile]  [PM] 
Display posts:    
Reply to topic

Current time is: 03-Dec 09:20

All times are UTC + 2



You cannot post new topics in this forum
You cannot reply to topics in this forum
You cannot edit your posts in this forum
You cannot delete your posts in this forum
You cannot vote in polls in this forum
You cannot attach files in this forum
You cannot download files in this forum