Инопланетное вторжение: Битва за Лос-Анджелес / World Invasion: Battle Los Angeles (Джонатан Либесман / Jonathan Liebesman) [2011, США, фантастика, боевик, триллер, DVDRip] DUB (R5) + Sub (rus - forced)

Reply to topic
 
Author
Message

Satyr ®

Gender: Unknown

Longevity: 11 years

Posts: 15401

Reputation: 55 [+] [-]

Satyr · Post 01-May-2011 00:49

[Quote] 

Инопланетное вторжение: Битва за Лос-Анджелес / World Invasion: Battle Los Angeles
Страна: США
Студия: Columbia Pictures
Жанр: фантастика, боевик, триллер
Год выпуска: 2011
Продолжительность: 01:51:22
Перевод: Профессиональный (дублированный) лицензия
Субтитры: русский (форсированные)
Оригинальная аудиодорожка: нет
Режиссер: Джонатан Либесман / Jonathan Liebesman
В ролях: Аарон Экхарт, Бриджет Мойнэхэн, Мишель Родригес, Майкл Пенья, Рамон Родригез, Кори Хардрикт, Джино Энтони Песи, Шаффер Смит, Джеймс Хироюки Лиао, Ноэль Фишер...
Роли дублировали: Владимир Антоник, Василий Дахненко, Денис Беспалый, Михаил Тихонов, Иван Жарков...
Описание: Землю пытается захватить инопланетная цивилизация, истребляя все живое на своем пути. По всему миру начинается широкомасштабное сражение человечества за выживание. Отряду морских пехотинцев поручено во что бы то ни стало освободить осажденный город ангелов от таинственных и смертоносных тварей…

Бюджет: $70 000 000

Качество видео: DVDRip, источник DVD9 R5
Формат видео: AVI
Видео: 720x304 (2.35:1), 25.000 fps, XviD ~1418 Kbps avg, 0.259 bit/pixel
Аудио: 48 kHz, AC3, 6 ch, 448.00 kbps Constant
Формат субтитров: SoftSub (srt)

MediaInfo

Общее
Полное имя : Inoplanetnoe.vtorzhenie.Bitva.za.Los-Andzheles.2011.D.DVDRip.1.46GB.avi
Формат : AVI
Формат/Информация : Audio Video Interleave
Размер файла : 1,46 Гбайт
Продолжительность : 1 ч. 51 м.
Общий поток : 1876 Кбит/сек
Программа кодирования : VirtualDubMod 1.5.10.3 (build 2550/release)
Библиотека кодирования : VirtualDubMod build 2550/release
Видео
Идентификатор : 0
Формат : MPEG-4 Visual
Профиль формата : Advanced Simple@L5
Параметр BVOP формата : 1
Параметр QPel формата : Нет
Параметр GMC формата : Без точки перехода
Параметр матрицы формата : Выборочная
Идентификатор кодека : XVID
Идентификатор кодека/Подсказка : XviD
Продолжительность : 1 ч. 51 м.
Битрейт : 1418 Кбит/сек
Ширина : 720 пикс.
Высота : 304 пикс.
Соотношение сторон : 2,35:1
Частота кадров : 25,000 кадр/сек
Цветовое пространство : YUV
Подвыборка цветности : 4:2:0
Битовая глубина : 8 бит
Тип развёртки : Прогрессивная
Метод сжатия : С потерями
Бит/(Пиксели*Кадры) : 0.259
Размер потока : 1,10 Гбайт (76%)
Библиотека кодирования : XviD 61
Аудио
Идентификатор : 1
Формат : AC-3
Формат/Информация : Audio Coding 3
Расширение режима : CM (complete main)
Идентификатор кодека : 2000
Продолжительность : 1 ч. 51 м.
Вид битрейта : Постоянный
Битрейт : 448 Кбит/сек
Канал(ы) : 6 канала(ов)
Расположение каналов : Front: L C R, Side: L R, LFE
Частота : 48,0 КГц
Битовая глубина : 16 бит
Метод сжатия : С потерями
Размер потока : 357 Мбайт (24%)
Выравнивание : Разделение по промежуткам
Продолжительность промежутка : 40 мс. (1,00 видеокадр)
Время предзагрузки промежутка : 500 ms

Скриншот с названием

Скриншоты

[Profile]  [PM] 
Display posts:    
Reply to topic

Current time is: 02-Dec 20:21

All times are UTC + 2



You cannot post new topics in this forum
You cannot reply to topics in this forum
You cannot edit your posts in this forum
You cannot delete your posts in this forum
You cannot vote in polls in this forum
You cannot attach files in this forum
You cannot download files in this forum