Убить Боно / Killing Bono (Ник Хэмм / Nick Hamm) [2011, Великобритания, комедия, DVDRip] R5

Reply to topic
 
Author
Message

Wolf ®

Gender: Unknown

Longevity: 11 years

Posts: 2860

Reputation: 0 [+] [-]

Wolf · Post 09-May-2011 19:32

[Quote] 

Убить Боно / Killing Bono Год выпуска: 2011
Страна: Великобритания
Киностудия: Generator Entertainment, Isotope Films
Жанр: комедия
Продолжительность: 01:48:56
Перевод: Профессиональный (многоголосый) лицензия
Cубтитры: нет
Оригинальная аудиодорожка: нет
Режиссер: Ник Хэмм / Nick Hamm
В ролях: Бен Барнс, Роберт Шиэн, Кристен Риттер, Пит Постлетуэйт, Джастин Уоддэлл, Питер Серафинович, Ральф Браун, Люк Тредэвэй, Мартин Мак, КаннХью О’Конор...
Описание: Два неудачливых брата-ирландца Нил и Айвен МакКормики в конце 70-х создали в Дублине группу. К несчастью для парней, их одноклассники сделали то же самое — создали группу и назвали ее U2. Как вы понимаете, шансов у братьев не было.


Тип релиза: DVDRip, источник: DVD9 R5
Контейнер: AVI
Видео: 720x304 (2.35:1), 25.000 fps, XVID ~1460 kbps avg, 0.267 bit/pixel
Аудио: 48 kHz, AC3, 6 ch, 448.00 kbps Constant

MediaInfo

Общее
Полное имя : Ubit.Bono.2011.P.DVDRip.1.46GB.avi
Формат : AVI
Формат/Информация : Audio Video Interleave
Размер файла : 1,46 Гбайт
Продолжительность : 1 ч. 48 м.
Общий поток : 1918 Кбит/сек
Программа кодирования : VirtualDubMod 1.5.10.3 (build 2550/release)
Библиотека кодирования : VirtualDubMod build 2550/release
Видео
Идентификатор : 0
Формат : MPEG-4 Visual
Профиль формата : Advanced Simple@L5
Параметр BVOP формата : 1
Параметр QPel формата : Нет
Параметр GMC формата : Без точки перехода
Параметр матрицы формата : Выборочная
Идентификатор кодека : XVID
Идентификатор кодека/Подсказка : XviD
Продолжительность : 1 ч. 48 м.
Битрейт : 1460 Кбит/сек
Ширина : 720 пикс.
Высота : 304 пикс.
Соотношение сторон : 2,35:1
Частота кадров : 25,000 кадр/сек
Цветовое пространство : YUV
Подвыборка цветности : 4:2:0
Битовая глубина : 8 бит
Тип развёртки : Прогрессивная
Метод сжатия : С потерями
Бит/(Пиксели*Кадры) : 0.267
Размер потока : 1,11 Гбайт (76%)
Библиотека кодирования : XviD 1.2.1 (UTC 2008-12-04)
Аудио
Идентификатор : 1
Формат : AC-3
Формат/Информация : Audio Coding 3
Расширение режима : CM (complete main)
Идентификатор кодека : 2000
Продолжительность : 1 ч. 48 м.
Вид битрейта : Постоянный
Битрейт : 448 Кбит/сек
Каналы : 6 каналов
Расположение каналов : Front: L C R, Side: L R, LFE
Частота : 48,0 КГц
Битовая глубина : 16 бит
Метод сжатия : С потерями
Размер потока : 349 Мбайт (23%)
Выравнивание : Разделение по промежуткам
Продолжительность промежутка : 40 мс. (1,00 видеокадр)
Время предзагрузки промежутка : 500 ms

Скриншот с названием

Скриншоты

[Profile]  [PM] 
Display posts:    
Reply to topic

Current time is: 28-Nov 21:16

All times are UTC + 2



You cannot post new topics in this forum
You cannot reply to topics in this forum
You cannot edit your posts in this forum
You cannot delete your posts in this forum
You cannot vote in polls in this forum
You cannot attach files in this forum
You cannot download files in this forum