Три метра над небом / Tres metros sobre el cielo (Фернандо Гонзалез Молина / Fernando González Molina) [2010, Испания, драма, HDRip] Sub rus + original spa

Reply to topic
 
Author
Message

Satyr ®

Gender: Unknown

Longevity: 11 years

Posts: 15401

Reputation: 55 [+] [-]

Satyr · Post 22-May-2011 01:07

[Quote] 

Три метра над небом / Tres metros sobre el cielo
Страна: Испания
Жанр: драма
Год выпуска: 2010
Продолжительность: 02:02:46
Перевод: Субтитры
Cубтитры: русские
Оригинальная аудиодорожка: испанский
Режиссер: Фернандо Гонзалез Молина / Fernando González Molina
В ролях: Мария Вальверде, Марио Касас, Альваро Сервантес, Нереа Камачо, Марина Салас, Луис Фернандез, Диего Мартин и др.
Описание: История двух молодых людей, которые принадлежат к разным мирам. Баби — девушка из среднего класса, которая отображает доброту и невинность. Аче — мятежный мальчик, импульсивный, бессознательный, склонный к риску и опасности, ввязывающийся в бесконечные драки и нелегальные гонки на мотоциклах. Это маловероятно, практически невозможно, но их встреча неизбежна, и в этом неистовом путешествии между ними возникает первая большая любовь.
Доп. информация:
IMDB 4.6/10
Сэмпл: http://multi-up.com/493925
Качество видео: HDRip (источник неизвестен)
Формат видео: AVI
Видео: 720 x 304, 24 fps, XviD MPEG-4, 1800 kbps avg,
Аудио: [Spanish] AC3, 48.0 KHz, 448kbps, 6 channels
Формат субтитров: softsub (SRT)

MediaInfo

D:\Downloads\Torrents\Tres Metros Sobre el Cielo\Tres Metros Sobre el Cielo.[HDrip].avi
General
Complete name : D:\Downloads\Torrents\Tres Metros Sobre el Cielo\Tres Metros Sobre el Cielo.[HDrip].avi
Format : AVI
Format/Info : Audio Video Interleave
File size : 1.94 GiB
Duration : 2h 2mn
Overall bit rate : 2 257 Kbps
Writing application : VirtualDubMod 1.5.4.1 (build 2178/release)
Writing library : VirtualDubMod build 2178/release
Video #0
ID : 0
Format : MPEG-4 Visual
Format profile : AdvancedSimple@L5
Format settings, BVOP : Yes
Format settings, QPel : No
Format settings, GMC : No warppoints
Format settings, Matrix : Default (MPEG)
Codec ID : XVID
Codec ID/Hint : XviD
Duration : 2h 2mn
Bit rate : 1 800 Kbps
Width : 720 pixels
Height : 304 pixels
Display aspect ratio : 2.35:1
Frame rate : 24.000 fps
Resolution : 24 bits
Colorimetry : 4:2:0
Scan type : Progressive
Bits/(Pixel*Frame) : 0.343
Stream size : 1.54 GiB (80%)
Writing library : XviD 62
Audio #1
ID : 1
Format : AC-3
Format/Info : Audio Coding 3
Codec ID : 2000
Duration : 2h 2mn
Bit rate mode : Constant
Bit rate : 448 Kbps
Channel(s) : 6 channels
Channel positions : Front: L C R, Surround: L R, LFE
Sampling rate : 48.0 KHz
Stream size : 393 MiB (20%)
Alignment : Split accross interleaves
Interleave, duration : 42 ms (1.00 video frame)
Interleave, preload duration : 500 ms

Скриншот c названием фильма

Скриншоты

[
[Profile]  [PM] 
Display posts:    
Reply to topic

Current time is: 25-Nov 23:39

All times are UTC + 2



You cannot post new topics in this forum
You cannot reply to topics in this forum
You cannot edit your posts in this forum
You cannot delete your posts in this forum
You cannot vote in polls in this forum
You cannot attach files in this forum
You cannot download files in this forum