Крах неприемлем: Спасая Уолл-стрит / Слишком крут для неудачи / Too Big to Fail (Кёртис Хэнсон / Curtis Hanson) [2011, США, драма, HDTVRip] DVO (Кубик в Кубе) + Original (Eng)

Reply to topic
 
Author
Message

Satyr ®

Gender: Unknown

Longevity: 11 years

Posts: 15401

Reputation: 55 [+] [-]

Satyr · Post 03-Jul-2011 23:39

[Quote] 

Крах неприемлем: Спасая Уолл-стрит / Слишком крут для неудачи / Too Big to Fail Год выпуска: 2011
Страна: США, HBO Films / Home Box Office (HBO) / Spring Creek Productions
Жанр: драма
Продолжительность: 01:38:39
Перевод: Профессиональный (двухголосый, закадровый) от Кубик в Кубе
Оригинальная дорожка: английская
Субтитры: русские (только надписи и пр.), английские (внешние, *.srt) - отдельно на файлообменнике-Режиссер: Кёртис Хэнсон /Curtis Hanson/
В ролях: Уильям Хёрт /William Hurt/, Пол Джаматти /Paul Giamatti/, Билли Крудап /Billy Crudup/, Тофер Грейс /Topher Grace/, Синтия Никсон /Cynthia Nixon/, Кэти Бейкер /Kathy Baker/-Описание: Телевизионный фильм «Too Big To Fail» канала HBO снят по одноимённому документальному бестселлеру журналиста New York Times Эндрю Росса Соркина. Фильм рассказывает о горячем лете и осени 2008 года — времени, когда вся мировая система была поставлена на грань краха. Гигантские инвестбанки с Уолл-Стрит лопались один за другим. Правительство США безуспешно пыталось спасти мир от кризиса, по сравнению с которым Великая Депрессия покажется «старыми добрыми временами», а Россия угрожала за один день уничтожить экономику США. И, что самое интересное, могла это сделать.
В центре сюжета — глава Казначейства (министерства финансов) США Генри Полсон (Уильям Хёрт), глава Федеральной Резервной Системы Бен Бернанке (Пол Джаматти), глава Федерального Резервного Банка Нью-Йорка (и будущий глава Казначейства) Тимоти Гайтнер (Билли Крудап), и крупнейшие инвестбанкиры.
Крайне динамичный сюжет, основанный на реальных событиях и документах, жёсткие короткие диалоги, сделки на миллиарды долларов, успехи и неожиданные провалы — фирменный стиль канала HBO. Фильм будет интересен всем, кто интересуется финансами, современной историей, инвестициями.- -Качество: HDTVRip (Исходник: Too.Big.to.Fail.2011.720p.HDTV.x264-MOMENTUM)
Формат: AVI
Видео кодек: XviD
Аудио кодек: AC3
Видео: 720x400 (1.80:1), 23.976 fps, XviD build 64 ~1710 kbps avg, 0.25 bit/pixel
Аудио#1: 48 kHz, AC3 Dolby Digital, 2/0 (L,R) ch, ~192.00 kbps avg | Русский, двухголосый закадровый
Аудио#2: 48 kHz, AC3 Dolby Digital, 2/0 (L,R) ch, ~192.00 kbps avg | Английский, оригинальная дорожка
Размер: 1488.33 Mb ( 1 560 627 200 bytes ) ~ 1/3 DVD-R

Скриншот с названием фильма:

Скриншоты:


-

MediaInfo:

General
Complete name                    : E:\Too.Big.to.Fail.2011.RUS.ENG.HDTVRip.XviD.AC3-MAXiMUM.avi
Format                           : AVI
Format/Info                      : Audio Video Interleave
File size                        : 1.45 GiB
Duration                         : 1h 38mn
Overal bit rate                  : 2109 Kbps
Movie name                       : Too Big to Fail (2011)
Director                         : Curtis Hanson
Genre                            : Drama
Writing application              : VirtualDubModRus 1.5.10.2 (build 2542/release)
Copyright                        : © HBO
Product                          : Movie
Video
Format                           : MPEG-4 Visual
Format profile                   : Streaming Video@L1
Format settings, BVOP            : Yes
Format settings, QPel            : No
Format settings, GMC             : No warpoints
Format settings, Matrix          : Default
Codec ID                         : XVID
Codec ID/Hint                    : XviD
Duration                         : 1h 38mn
Bit rate                         : 1711 Kbps
Width                            : 720 pixels
Height                           : 400 pixels
Display aspect ratio             : 16/9
Frame rate                       : 23.976 fps
Resolution                       : 8 bits
Colorimetry                      : 4:2:0
Scan type                        : Progressive
Bits/(Pixel*Frame)               : 0.248
Stream size                      : 1.18 GiB
Writing library                  : XviD 64
Audio #1
Format                           : AC-3
Format/Info                      : Audio Coding 3
Codec ID                         : 2000
Duration                         : 1h 38mn
Bit rate mode                    : Constant
Bit rate                         : 192 Kbps
Channel(s)                       : 2 channels
Channel positions                : L R
Sampling rate                    : 48.0 KHz
Stream size                      : 135 MiB
Title                            : KvK
Audio #2
Format                           : AC-3
Format/Info                      : Audio Coding 3
Codec ID                         : 2000
Duration                         : 1h 38mn
Bit rate mode                    : Constant
Bit rate                         : 192 Kbps
Channel(s)                       : 2 channels
Channel positions                : L R
Sampling rate                    : 48.0 KHz
Stream size                      : 135 MiB
Title                            : Original
[Profile]  [PM] 
Display posts:    
Reply to topic

Current time is: 27-Nov 16:51

All times are UTC + 2



You cannot post new topics in this forum
You cannot reply to topics in this forum
You cannot edit your posts in this forum
You cannot delete your posts in this forum
You cannot vote in polls in this forum
You cannot attach files in this forum
You cannot download files in this forum