Ветеран / The Veteran (Мэттью Хоуп / Matthew Hope) [2011, Великобритания, боевик, триллер, HDRip] DVO + VO (-Anubis-)

Reply to topic
 
Author
Message

Satyr ®

Gender: Unknown

Longevity: 11 years

Posts: 15401

Reputation: 55 [+] [-]

Satyr · Post 14-Aug-2011 21:56

[Quote] 

Ветеран / The Veteran
Страна: Великобритания
Жанр: боевик, триллер
Год выпуска: 2011
Продолжительность: 01:38:08
Перевод: Любительский (двухголосый закадровый)
Перевод: Любительский (одноголосый закадровый)
Cубтитры: нет
Режиссер: Мэттью Хоуп / Matthew Hope
В ролях: Тоби Кеббелл, Брайан Кокс, Тони Карран, Ади Бельский, Том Брук, Баши, Мем Ферда, Иванно Джеремия, Селва Расалингам, Ебосета Аймера
Описание: Солдат, вернувшись с войны в Афганистане, раскрывает заговор, в который вовлечена служба разведки и банда наркоторговцев.
IMDB 6/10 Users: (947 votes)
СЭМПЛ
Качество видео: HDRip (Исх. The.Veteran.2011.1080p.MKV.AC3.DTS.NL.Subs.DMT)
Формат видео: AVI
Видео: 720x384 (1.88:1), 25 fps, XviD build 50 ~1618 kbps avg, 0.23 bit/pixel
Аудио: 48 kHz, AC3 Dolby Digital, 3/2 (L,C,R,l,r) + LFE ch, ~448 kbps DVO
Аудио: 48 kHz, MPEG Layer 3, 2 ch, ~128.00 kbps avg

AviInfo


File: Veteran.chopper887.avi
Title: Veteran.chopper887
Author: chopper887
Genre: Action
Category: Movie
Filesize: 1489.10 Mb ( 1 561 436 160 bytes )
Play length: 01:34:12.439 (141311 frames)
Subtitles: Not Present
Video: 720x384 (1.88:1), 25 fps, XviD build 50 ~1618 kbps avg, 0.23 bit/pixel
Audio #1: 48 kHz, AC3 Dolby Digital, 3/2 (L,C,R,l,r) + LFE ch, ~448 kbps
Audio #2: 48 kHz, MPEG Layer 3, 2 ch, ~128.00 kbps avg

MediaInfo


General
Complete name : L:\Veteran.chopper887.avi
Format : AVI
Format/Info : Audio Video Interleave
File size : 1.45 GiB
Duration : 1h 34mn
Overall bit rate : 2 210 Kbps
Writing application : VirtualDubMod 1.5.10.3 | www.virtualdub-fr.org || (build 2550/release)
Writing library : VirtualDubMod build 2550/release
Video
ID : 0
Format : MPEG-4 Visual
Format profile : Advanced Simple@L5
Format settings, BVOP : 2
Format settings, QPel : No
Format settings, GMC : No warppoints
Format settings, Matrix : Custom
Codec ID : XVID
Codec ID/Hint : XviD
Duration : 1h 34mn
Bit rate : 1 619 Kbps
Width : 720 pixels
Height : 384 pixels
Display aspect ratio : 1.875
Frame rate : 25.000 fps
Color space : YUV
Chroma subsampling : 4:2:0
Bit depth : 8 bits
Scan type : Progressive
Compression mode : Lossy
Bits/(Pixel*Frame) : 0.234
Stream size : 1.07 GiB (73%)
Writing library : XviD 1.2.1 (UTC 2008-12-04)
Audio #1
ID : 1
Format : AC-3
Format/Info : Audio Coding 3
Mode extension : CM (complete main)
Codec ID : 2000
Duration : 1h 34mn
Bit rate mode : Constant
Bit rate : 448 Kbps
Channel(s) : 6 channels
Channel positions : Front: L C R, Side: L R, LFE
Sampling rate : 48.0 KHz
Bit depth : 16 bits
Compression mode : Lossy
Stream size : 302 MiB (20%)
Alignment : Split accross interleaves
Interleave, duration : 40 ms (1.00 video frame)
Interleave, preload duration : 500 ms
Audio #2
ID : 2
Format : MPEG Audio
Format version : Version 1
Format profile : Layer 3
Mode : Joint stereo
Mode extension : MS Stereo
Codec ID : 55
Codec ID/Hint : MP3
Duration : 1h 34mn
Bit rate mode : Constant
Bit rate : 128 Kbps
Channel(s) : 2 channels
Sampling rate : 48.0 KHz
Compression mode : Lossy
Stream size : 86.2 MiB (6%)
Alignment : Aligned on interleaves
Interleave, duration : 40 ms (1.00 video frame)
Interleave, preload duration : 504 ms

Скриншоты


[Profile]  [PM] 
Display posts:    
Reply to topic

Current time is: 02-Dec 07:51

All times are UTC + 2



You cannot post new topics in this forum
You cannot reply to topics in this forum
You cannot edit your posts in this forum
You cannot delete your posts in this forum
You cannot vote in polls in this forum
You cannot attach files in this forum
You cannot download files in this forum