Охранник / The Sentinel (Кларк Джонсон / Clark Johnson) [2006, США, Боевик, детектив, триллер, BDRip] Dub + Eng + Sub rus, eng

Reply to topic
 
Author
Message

Satyr ®

Gender: Unknown

Longevity: 11 years

Posts: 15401

Reputation: 55 [+] [-]

Satyr · Post 11-Sep-2011 02:17

[Quote] 

Охранник / The Sentinel
Страна: США
Жанр: Боевик, детектив, триллер
Год выпуска: 2006
Продолжительность: 01:48:00
Перевод: Профессиональный (дублированный)
Оригинальная дорожка : английский - отдельно
Cубтитры: русские, английские - отдельно
Режиссер: Кларк Джонсон / Clark Johnson
В ролях: Майкл Дуглас, Кифер Сазерленд, Ким Бэйсингер, Ева Лонгориа, Мартин Донован, Дэвид Раше
Описание: Специальный агент Пит Гаррисон убежден, что в Белом Доме завелся предатель. Его теория находит подтверждение после убийства одного из охранников президента. Однако подозрение падает на самого Гаррисона. Его отстраняют от дел, и ко всему прочему вменяют в вину связь с первой леди. Жизнь президентской семьи в опасности. Пытаясь найти предателя, Гаррисон вынужден воевать с системой, которую он сам создал...
Доп. информация:
IMDB 6.1/10 (24,173 votes)
Качество видео: BDRip (Исх. Blu-ray)
Формат видео: AVI
Видео: 720x304 (2.37:1), 23.976 fps, XviD build 50 ~1537 kbps avg, 0.29 bit/pixel
Аудио: 48 kHz, AC3 Dolby Digital, 3/2 (L,C,R,l,r) + LFE ch, ~384 kbps RUS
Аудио: 48 kHz, AC3 Dolby Digital, 3/2 (L,C,R,l,r) + LFE ch, ~448 kbps ENG - отдельно
Формат субтитров: softsub (SRT)

AviInfo


File: Ohrannik.chopper887.avi
Title: Ohrannik.chopper887
Author: chopper887
Filesize: 1491.53 Mb ( 1 563 977 728 bytes )
Play length: 01:48:00.233 (155370 frames)
Subtitles: Not Present
Video: 720x304 (2.37:1), 23.976 fps, XviD build 50 ~1537 kbps avg, 0.29 bit/pixel
Audio: 48 kHz, AC3 Dolby Digital, 3/2 (L,C,R,l,r) + LFE ch, ~384 kbps

MediaInfo


General
Complete name : D:\Ohrannik.chopper887.avi
Format : AVI
Format/Info : Audio Video Interleave
File size : 1.46 GiB
Duration : 1h 48mn
Overall bit rate : 1 931 Kbps
Movie name : Ohrannik.chopper887
Director : chopper887
Writing application : VirtualDubMod 1.5.10.3 | www.virtualdub-fr.org || (build 2550/release)
Video
ID : 0
Format : MPEG-4 Visual
Format profile : Advanced Simple@L5
Format settings, BVOP : Yes
Format settings, QPel : No
Format settings, GMC : No warppoints
Format settings, Matrix : Custom
Codec ID : XVID
Codec ID/Hint : XviD
Duration : 1h 48mn
Bit rate : 1 537 Kbps
Width : 720 pixels
Height : 304 pixels
Display aspect ratio : 2.35:1
Frame rate : 23.976 fps
Color space : YUV
Chroma subsampling : 4:2:0
Bit depth : 8 bits
Scan type : Progressive
Compression mode : Lossy
Bits/(Pixel*Frame) : 0.293
Stream size : 1.16 GiB (80%)
Writing library : XviD 1.2.1 (UTC 2008-12-04)
Audio
ID : 1
Format : AC-3
Format/Info : Audio Coding 3
Mode extension : CM (complete main)
Codec ID : 2000
Duration : 1h 48mn
Bit rate mode : Constant
Bit rate : 384 Kbps
Channel(s) : 6 channels
Channel positions : Front: L C R, Side: L R, LFE
Sampling rate : 48.0 KHz
Bit depth : 16 bits
Compression mode : Lossy
Stream size : 297 MiB (20%)
Alignment : Split accross interleaves
Interleave, duration : 42 ms (1.00 video frame)
Interleave, preload duration : 500 ms

Скриншоты


[Profile]  [PM] 
Display posts:    
Reply to topic

Current time is: 02-Dec 09:09

All times are UTC + 2



You cannot post new topics in this forum
You cannot reply to topics in this forum
You cannot edit your posts in this forum
You cannot delete your posts in this forum
You cannot vote in polls in this forum
You cannot attach files in this forum
You cannot download files in this forum