Комната в Риме / Habitacion en Roma / Room in Rome (Хулио Медем / Julio Medem) [2010, Испания, мелодрама, драма, эротика, BDRip] MVO+ENG+Sub rus

Reply to topic
 
Author
Message

Faust ®

Gender: Unknown

Longevity: 9 years 2 months

Posts: 14058

Reputation: 0 [+] [-]

Faust · Post 18-Sep-2011 17:41

[Quote] 

Комната в Риме / Habitacion en Roma / Room in Rome
Страна: Испания
Жанр: мелодрама, драма, эротика
Год выпуска: 2010
Продолжительность: 01:47:26
Перевод: Профессиональный (многоголосый, закадровый) R5 + Английская звуковая дорожка
Cубтитры: Русские, английские (внешние srt*)
Режиссер: Хулио Медем / Julio Medem
В ролях: Елена Анайя (Alba), Наташа Яровенко (Natasha), Энрико Ло Версо (Max), Найва Нимри (Edurne)
Описание: Две девушки, русская и испанка, знакомятся в одном из баров Рима. Они представляются друг другу как Наташа и Альба. Альба предлагает зайти к ней в гости в номер, в одном из отелей. Поддавшись очарованию испанки, Наташа соглашается. Интимное общение переходит в рассказ о жизни друг друга. Альба рассказала, что она бывшая жена богатого араба. Она должна была родить ему дочь, но решила сбежать от него, иначе ей бы пришлось всю жизнь провести в гареме. Теперь она живёт в городе Сан-Себастьян в Испании. Наташа рассказывает, что родом с острова Некрасов, она актриса и приехала в Рим на пробы. У неё есть сестра-близнец Даша, известная теннисистка. У них рано умерла мать, и отец принуждал Наташу к сексу. Откровенные признания девушек сменяются сексом, а после секса продолжаются признания, и истории меняются раз за разом. Ненастоящие имена подруг заставляют усомниться и в правдивости всего ими рассказанного, ведь после этой ночи они никогда больше не встретятся. Но возникшие чувства неожиданно оказываются слишком сильны.


Релиз группа:
Качество видео: BDRip (источник: / Blu-ray Disc / 1080p)
Формат видео: AVI
Видео: 720x304 (2.37:1), 24 fps, XviD build 57 ~2252 kbps avg, 0.43 bit/pixel
Аудио 1: 48 kHz, AC3 Dolby Digital, 2/0 (L,R), ~192.00 kbps avg (RUS)
Аудио 2: 48 kHz, AC3 Dolby Digital, 3/2 (L,C,R,l,r) + LFE ch, ~448.00 kbps avg (ENG)
Формат субтитров: softsub (SRT)

MediaInfo


Video
ID : 0
Format : MPEG-4 Visual
Format profile : Advanced Simple@L5
Format settings, BVOP : 1
Format settings, QPel : No
Format settings, GMC : No warppoints
Format settings, Matrix : Custom
Codec ID : XVID
Codec ID/Hint : XviD
Duration : 1h 47mn
Bit rate : 2 241 Kbps
Width : 720 pixels
Height : 304 pixels
Display aspect ratio : 2.35:1
Frame rate : 24.000 fps
Color space : YUV
Chroma subsampling : 4:2:0
Bit depth : 8 bits
Scan type : Progressive
Compression mode : Lossy
Bits/(Pixel*Frame) : 0.427
Stream size : 1.68 GiB (77%)
Writing library : XviD 57
Audio #1
ID : 1
Format : AC-3
Format/Info : Audio Coding 3
Mode extension : CM (complete main)
Codec ID : 2000
Duration : 1h 47mn
Bit rate mode : Constant
Bit rate : 192 Kbps
Channel(s) : 2 channels
Channel positions : Front: L R
Sampling rate : 48.0 KHz
Bit depth : 16 bits
Compression mode : Lossy
Stream size : 148 MiB (7%)
Alignment : Split accross interleaves
Interleave, duration : 42 ms (1.00 video frame)
Interleave, preload duration : 500 ms
Audio #2
ID : 2
Format : AC-3
Format/Info : Audio Coding 3
Mode extension : CM (complete main)
Codec ID : 2000
Duration : 1h 47mn
Bit rate mode : Constant
Bit rate : 448 Kbps
Channel(s) : 6 channels
Channel positions : Front: L C R, Side: L R, LFE
Sampling rate : 48.0 KHz
Bit depth : 16 bits
Compression mode : Lossy
Stream size : 344 MiB (15%)
Alignment : Split accross interleaves
Interleave, duration : 42 ms (1.00 video frame)
Interleave, preload duration : 500 ms

Скриншот c названием фильма


Скриншоты


[Profile]  [PM] 

mario-OS

Gender: Male

Longevity: 11 years

Posts: 575

Reputation: 31 [+] [-]

Location: ...из страны, где шлюха стоит всего лишь доллар, солнце всегда и везде (с)

mario-OS · Post 15-Oct-2011 19:07 (after 27 days)

[Quote] 

Спасибо!
[Profile]  [PM] 
Display posts:    
Reply to topic

Current time is: 27-Nov 16:30

All times are UTC + 2



You cannot post new topics in this forum
You cannot reply to topics in this forum
You cannot edit your posts in this forum
You cannot delete your posts in this forum
You cannot vote in polls in this forum
You cannot attach files in this forum
You cannot download files in this forum