Добыча / La proie (Эрик Валетт / Eric Valette) [2011, Франция, триллер, боевик, BDRip] VO

Reply to topic
 
Author
Message

Satyr ®

Gender: Unknown

Longevity: 11 years

Posts: 15401

Reputation: 55 [+] [-]

Satyr · Post 07-Oct-2011 19:03

[Quote] 

Добыча / La proie
Страна: Франция
Жанр: триллер, боевик
Год выпуска: 2011
Продолжительность: 01:44:33
Перевод: Одноголосый закадровый
Cубтитры: нет
Режиссер: Эрик Валетт / Eric Valette
В ролях: Альбер Дюпонтель, Алис Тальони, Стефан Дебак, Серхи Лопес, Наташа Ренье, Серж Азанавичюс, Зинедин Суалем, Катерина Мурино, Люсьен Жан-Баптист, Жан-Мари Винлин
Описание: Франк Адриан мотает срок за ограбление банка, как тут в камеру к нему подсаживают невинно осуждённого человека. На новичка наезжают уголовники, но Адриан впрягается за него. Теперь Франку предстоит опасаться братвы, да ещё и подельник наезжает, требуя слить инфу о тайнике с награбленным.
Доп. информация:
IMDB 6.7/10 from 397 users
СЭМПЛ
Качество видео: BDRip (Исх. BDRemux)
Формат видео: AVI
Видео: 720x304 (2.37:1), 24 fps, XviD build 50 ~1537 kbps avg, 0.29 bit/pixel
Аудио: 48 kHz, AC3 Dolby Digital, 3/2 (L,C,R,l,r) + LFE ch, ~448 kbps

MediaInfo


General
Complete name : L:\Dobicha.chopper887.avi
Format : AVI
Format/Info : Audio Video Interleave
File size : 1.46 GiB
Duration : 1h 44mn
Overall bit rate : 1 995 Kbps
Movie name : Dobicha.chopper887
Director : chopper887
Genre : Action
Writing application : VirtualDubMod 1.5.10.3 | www.virtualdub-fr.org || (build 2550/release)
Original source form/Name : Movie
Video
ID : 0
Format : MPEG-4 Visual
Format profile : Advanced Simple@L5
Format settings, BVOP : 2
Format settings, QPel : No
Format settings, GMC : No warppoints
Format settings, Matrix : Custom
Codec ID : XVID
Codec ID/Hint : XviD
Duration : 1h 44mn
Bit rate : 1 538 Kbps
Width : 720 pixels
Height : 304 pixels
Display aspect ratio : 2.35:1
Frame rate : 24.000 fps
Color space : YUV
Chroma subsampling : 4:2:0
Bit depth : 8 bits
Scan type : Progressive
Compression mode : Lossy
Bits/(Pixel*Frame) : 0.293
Stream size : 1.12 GiB (77%)
Writing library : XviD 1.2.1 (UTC 2008-12-04)
Audio
ID : 1
Format : AC-3
Format/Info : Audio Coding 3
Mode extension : CM (complete main)
Codec ID : 2000
Duration : 1h 44mn
Bit rate mode : Constant
Bit rate : 448 Kbps
Channel(s) : 6 channels
Channel positions : Front: L C R, Side: L R, LFE
Sampling rate : 48.0 KHz
Bit depth : 16 bits
Compression mode : Lossy
Stream size : 335 MiB (22%)
Alignment : Split accross interleaves
Interleave, duration : 42 ms (1.00 video frame)
Interleave, preload duration : 500 ms

Скриншоты


[Profile]  [PM] 
Display posts:    
Reply to topic

Current time is: 02-Dec 08:16

All times are UTC + 2



You cannot post new topics in this forum
You cannot reply to topics in this forum
You cannot edit your posts in this forum
You cannot delete your posts in this forum
You cannot vote in polls in this forum
You cannot attach files in this forum
You cannot download files in this forum